<xml version="1.0" standalone="no"?>
<!DOCTYPE svg PUBLIC "-//W3C//DTD SVG 1.1//EN" "http://www.w3.org/Graphics/SVG/1.1/DTD/svg11.dtd" >
<svg xmlns="http://www.w3.org/2000/svg">
  <metadata>Created by iconfont</metadata>
  <defs>
  <font id="iconfont" horiz-adv-x="1024">
    <font-face
      font-family="iconfont"
      font-weight="400"
      font-stretch="normal"
      units-per-em="1024"
      ascent="896"
      descent="-128"
    />
      <missing-glyph />
      
      <glyph glyph-name="Period2" unicode="&#58994;" d="M218.425469 658.703673v-56.424489a68.085551 68.085551 0 0 1 136.150204 0v56.424489h320.261225v-56.424489a68.085551 68.085551 0 1 1 136.171102 0v56.424489h60.227918a62.296816 62.296816 0 0 0 62.296817-62.296816v-488.489796a62.296816 62.296816 0 0 0-62.296817-62.275918H158.197551a62.317714 62.317714 0 0 0-62.296816 62.275918V596.406857a62.296816 62.296816 0 0 0 62.296816 62.275919h60.227918z m91.407674-407.677387H242.416327a41.503347 41.503347 0 0 1 0-82.964898h67.416816a41.482449 41.482449 0 1 1 0 82.964898z m248.957388 0h-82.964898a41.503347 41.503347 0 0 1 0-82.964898h82.964898a41.503347 41.503347 0 1 1 0 82.964898z m228.205714 0h-62.234123a41.482449 41.482449 0 1 1 0-82.964898h62.234123a41.482449 41.482449 0 1 1 0 82.964898z m-477.163102 163.380245H242.416327a41.482449 41.482449 0 0 1 0-82.964898h67.416816a41.482449 41.482449 0 1 1 0 82.964898z m248.957388 0h-82.964898a41.503347 41.503347 0 0 1 0-82.964898h82.964898a41.503347 41.503347 0 1 1 0 82.964898z m228.205714 0h-62.234123a41.482449 41.482449 0 1 1 0-82.964898h62.234123a41.482449 41.482449 0 1 1 0 82.964898zM286.51102 797.946776a41.503347 41.503347 0 0 0 41.503347-41.482449v-145.240817a41.503347 41.503347 0 0 0-82.985796 0v145.240817a41.482449 41.482449 0 0 0 41.482449 41.482449z m456.411429 0a41.503347 41.503347 0 0 0 41.503347-41.482449v-145.240817a41.503347 41.503347 0 0 0-82.964898 0v145.240817a41.503347 41.503347 0 0 0 41.482449 41.482449z"  horiz-adv-x="1140" />
      
      <glyph glyph-name="vfootball" unicode="&#58993;" d="M417.68751 789.963755l92.013714-52.098612 85.556245 52.01502a423.915102 423.915102 0 0 1-88.98351 9.383184c-30.385633 0-60.018939-3.218286-88.607347-9.299592z m-84.093388-27.522612l-0.543346-0.940408 145.408-82.337959v-109.756082L338.546939 477.413878l-99.098123 30.260244-41.043592 158.11396a421.407347 421.407347 0 0 0 135.168 96.653061z m343.813225-0.417959l-0.940408 1.525551a421.386449 421.386449 0 0 0 140.601469-100.937143l-29.528816-130.654041a292.634122 292.634122 0 0 1-83.382857 12.058122c-34.627918 0-67.855673-6.018612-98.680164-17.073632l-60.31151 41.921306v112.765388l132.242286 80.394449z m-138.971429-269.437388l-27.146449 18.829061-128.982204-84.803918 33.687511-124.196572a292.65502 292.65502 0 0 0 122.441142 190.171429z m-122.608326-291.171265l-50.886531-75.98498 64.846368-155.961469c24.805878-4.534857 50.364082-6.896327 76.48653-6.896327 24.178939 0 47.856327 2.027102 70.927674 5.914123l7.606857 15.757061c-87.478857 39.12098-152.220735 119.933388-168.980898 217.171592z m505.521632 246.052571a414.302041 414.302041 0 0 1-51.931428 144.27951l-19.56049-86.559347a293.929796 293.929796 0 0 0 71.471021-57.720163z m-573.690775-454.112653l-43.405061 104.406204-116.318041 9.947429a421.323755 421.323755 0 0 1 159.723102-114.332735z m-37.135673 170.527347l-172.261878 14.691265a414.197551 414.197551 0 0 0-49.946122 157.361633l130.821224 108.502204 97.300898-29.696 46.727837-172.261878-52.662857-78.618122zM87.917714 422.034286l86.308572 71.57551-27.167347 104.677877a414.406531 414.406531 0 0 1-59.141225-176.253387zM924.609306 251.44424500000002c0-121.772408-98.701061-220.473469-220.473469-220.473469-121.75151 0-220.452571 98.701061-220.452572 220.473469 0 121.75151 98.701061 220.452571 220.47347 220.452571 121.75151 0 220.452571-98.701061 220.452571-220.473469z m-77.176163 99.202612h-100.059429l-43.237877-93.748245-43.237878 93.748245h-100.059428l142.315102-242.520816h1.964408l142.315102 242.520816z"  horiz-adv-x="1076" />
      
      <glyph glyph-name="volleyball" unicode="&#58896;" d="M607.984327 238.71738800000003a485.982041 485.982041 0 0 1-94.479674 103.173224 556.13649 556.13649 0 0 0-204.507429-38.682122c-71.700898-0.292571-142.774857 13.374694-209.293061 40.165877 3.657143-36.425143 12.120816-72.223347 25.098449-106.454204a331.274449 331.274449 0 0 1 45.766531-29.988571c171.906612-85.472653 371.628408-0.606041 437.415184 31.785796z m152.199836 487.653877l-11.661061-8.108408a479.190204 479.190204 0 0 1-112.138449-117.55102c61.293714-38.995592 232.636082-166.138776 272.384-363.206531a418.962286 418.962286 0 0 1 8.526367 270.064327 417.708408 417.708408 0 0 1-158.009469 218.801632h0.898612zM482.40849 411.75249a562.07151 562.07151 0 0 0 207.516734 355.390694 414.072163 414.072163 0 0 1-104.656979 31.493224c-16.509388-7.188898-32.412735-15.715265-47.542857-25.49551-160.55902-104.970449-187.18302-320.888163-191.362612-393.174204a483.745959 483.745959 0 0 1 136.045714 31.785796z m116.610612 125.074286a494.968163 494.968163 0 0 1-42.151184-133.454368 562.113306 562.113306 0 0 0 204.214858-358.08653 421.240163 421.240163 0 0 1 79.224163 73.769795c2.089796 17.51249 2.800327 35.171265 2.089796 52.788245-10.156408 193.43151-182.982531 323.584-243.377633 363.770776v1.212082z m-328.892082-155.648c3.573551 73.477224 27.501714 285.507918 177.298286 419.84a418.209959 418.209959 0 0 1-237.609796-128.334368 420.466939 420.466939 0 0 1-110.132245-247.118367l12.873143-6.311184a477.225796 477.225796 0 0 1 158.761796-39.288163l-1.191184 1.212082z m373.446531-206.346449a697.114122 697.114122 0 0 0-304.692245-80.060082c-49.549061-0.271673-98.847347 7.523265-145.909551 23.092245a418.418939 418.418939 0 0 1 228.56098-141.938939c89.652245-20.814367 183.693061-11.410286 267.493877 26.770286v14.398694a480.966531 480.966531 0 0 1-44.554449 156.546612l-0.898612 1.191184z"  horiz-adv-x="1024" />
      
      <glyph glyph-name="beach_volley" unicode="&#58987;" d="M729.129796 593.648327c-126.098286 84.929306-259.197388 132.743837-406.110041 155.271836 40.019592 26.268735 82.337959 40.897306 126.474449 48.692245 119.243755 20.960653 227.892245-3.907918 325.172245-75.984979 13.41649-9.968327 17.721469-19.999347 9.759347-33.875592-12.037224-21.023347-24.387918-41.87951-37.114776-63.362613V624.3265309999999c-5.976816-10.072816-12.037224-20.291918-18.181224-30.761796v0.062694zM672.412735 542.9080819999999c-40.04049-37.574531-82.588735-67.082449-129.692735-90.132898-5.078204-2.486857-14.54498-1.295673-19.685878 1.83902-110.592 68.273633-230.337306 105.910857-361.597387 106.098939-0.355265 0-0.710531 0.229878-2.194286 1.191184a244.506122 244.506122 0 0 1-5.663347 3.552653c6.206694 9.216 12.267102 18.53649 18.306612 27.877877 15.861551 24.408816 31.702204 48.817633 50.238694 71.094857 7.794939 9.404082 30.134857 11.36849 45.181388 10.031021l5.997714-0.543347c46.832327-4.179592 93.99902-8.40098 139.681959-18.473796 75.901388-16.718367 147.267918-46.748735 214.893715-84.741225 9.947429-5.600653 19.602286-11.828245 29.904979-18.473796 4.702041-3.030204 9.529469-6.144 14.586776-9.320489h0.041796zM852.532245 52.516571l3.657143 6.018613c23.050449-0.271673 40.061388 11.702857 41.377959 31.388734 1.400163 21.357714-11.05502 33.018776-31.137959 39.706123a95.378286 95.378286 0 0 0-30.573715 16.634775c-43.21698 35.902694-91.742041 36.571429-133.01551-1.818122-17.867755-16.655673-30.531918-17.805061-48.859428-0.668735-41.566041 38.870204-89.443265 38.974694-132.513959 2.633143-17.825959-15.046531-35.798204-14.774857-53.937633 0.773225-39.873306 34.168163-88.126694 34.544327-127.352163 0.961306-18.432-15.777959-37.574531-15.56898-57.406694 0.626938-39.12098 31.911184-85.263673 31.911184-124.280164 1.630041-12.162612-9.404082-26.540408-16.613878-40.834612-22.653388-18.034939-7.627755-28.003265-19.853061-25.119347-38.682122 3.030204-19.644082 15.986939-30.176653 37.031184-30.657306 26.958367-0.585143 48.963918 10.114612 66.831673 28.734694 16.27951 16.885551 29.319837 16.028735 46.957715 0.250775 46.100898-41.336163 92.327184-40.646531 137.905632 1.003102 15.46449 14.147918 26.853878 15.631673 43.175184 0.856817 47.333878-42.945306 92.97502-43.425959 139.807347-1.191184 16.801959 15.109224 28.525714 15.109224 45.097796 0 45.724735-41.795918 91.052408-41.858612 137.717551-0.10449 16.551184 14.774857 28.086857 14.733061 45.473959 0.480653 12.329796-10.156408 26.770286-17.867755 41.210776-25.6 6.311184-3.364571 12.643265-6.750041 18.787265-10.323592zM862.584163 626.625306c-4.075102 7.000816-8.275592 14.210612-12.538775 21.671184l-0.062694-0.041796c-63.843265-112.222041-160.621714-203.88049-271.109225-260.20049-7.585959-3.88702-17.742367-11.870041-18.32751-18.64098-4.597551-51.576163 2.048-102.358204 13.479184-151.34302 5.349878-0.689633 10.44898-1.107592 15.36-1.525551 10.24-0.835918 19.581388-1.609143 28.128653-4.534857 21.692082-7.37698 35.902694 0.146286 50.510367 15.318204a1184.350041 1184.350041 0 0 1 221.100408 322.873469c3.322776 7.209796 5.32898 18.097633 2.15249 24.534204-8.505469 17.282612-18.243918 34.00098-28.692898 51.889633zM254.662531 212.55314299999998c7.774041 0.041796 15.631673 0.083592 23.593796 0.083592-16.551184 85.180082-28.421224 174.28898-17.240817 270.858449-9.675755 0-19.226122 0.041796-28.672 0.083592-29.298939 0.125388-57.657469 0.229878-85.995102-0.835919-5.517061-0.20898-14.356898-9.863837-15.380898-16.133224-13.980735-85.138286 2.089796-165.511837 42.882612-241.392327 2.883918-5.287184 9.675755-11.807347 14.900245-11.995428 21.733878-0.898612 43.488653-0.794122 65.912164-0.668735zM499.252245 186.660571l-0.062694 0.020898c0.313469 2.883918 0.626939 5.12 0.898612 6.938123 0.417959 3.030204 0.668735 4.91102 0.522449 6.770939l-2.549551 31.973877a9624.408816 9624.408816 0 0 1-12.601469 148.020245c-0.585143 6.394776-6.394776 14.795755-12.204408 17.763265-32.684408 16.718367-65.703184 32.851592-101.041633 50.092409-12.413388 6.060408-25.119347 12.267102-38.180571 18.682775-9.404082-91.95102 3.260082-173.912816 22.31902-257.379265 51.722449 14.064327 97.17551 4.325878 142.837551-22.862368v-0.020898h0.062694zM861.769143 194.45551c50.259592 74.438531 71.951673 158.949878 64.929959 253.534041h-0.062694l-67.37502-96.820245c-31.117061-44.658939-61.523592-88.377469-91.177796-130.988408 28.755592-7.920327 59.559184-16.363102 93.685551-25.725388z"  horiz-adv-x="1134" />
      
      <glyph glyph-name="svg_efootball1" unicode="&#58992;" d="M430.18449 789.963755l92.013714-52.098612 85.556245 52.01502a423.936 423.936 0 0 1-88.98351 9.383184c-30.385633 0-60.018939-3.218286-88.586449-9.299592z m-84.093388-27.522612l-0.543347-0.940408 145.408-82.337959v-109.756082L351.085714 477.413878l-99.098122 30.260244-41.043592 158.11396a421.407347 421.407347 0 0 0 135.168 96.653061z m343.813225-0.417959l-0.940409 1.525551a421.407347 421.407347 0 0 0 140.60147-100.937143l-29.528817-130.654041a292.634122 292.634122 0 0 1-83.382857 12.058122c-34.627918 0-67.834776-6.018612-98.659265-17.073632l-60.332408 41.921306v112.765388l132.242286 80.394449z m-138.971429-269.437388l-27.146449 18.829061-128.982204-84.803918 33.708408-124.196572a292.65502 292.65502 0 0 0 122.420245 190.171429z m-122.587429-291.171265l-50.88653-75.98498 64.825469-155.961469c24.805878-4.534857 50.364082-6.896327 76.486531-6.896327 24.178939 0 47.856327 2.027102 70.927673 5.914123l7.606857 15.757061c-87.478857 39.12098-152.220735 119.933388-168.96 217.171592z m505.521633 246.031673a414.322939 414.322939 0 0 1-51.931429 144.300408l-19.581387-86.559347a293.908898 293.908898 0 0 0 71.491918-57.741061zM360.134531-6.624652999999967l-43.384164 104.385306-116.338938 9.947429a421.302857 421.302857 0 0 1 159.723102-114.332735z m-37.135674 170.485551l-172.261877 14.712163a414.197551 414.197551 0 0 0-49.946123 157.361633l130.821225 108.502204 97.300898-29.696 46.748734-172.261878-52.662857-78.618122zM100.414694 422.034286l86.308571 71.57551-27.167347 104.677877a414.406531 414.406531 0 0 1-59.141224-176.253387zM716.653714 471.896816c121.75151 0 220.473469-98.701061 220.47347-220.473469 0-121.75151-98.721959-220.473469-220.47347-220.473469-121.75151 0-220.473469 98.721959-220.473469 220.473469 0 121.772408 98.721959 220.473469 220.473469 220.473469z m6.123102-65.389714c-21.127837 0-40.124082-3.678041-56.946938-11.013224a118.031673 118.031673 0 0 1-42.987102-30.908082 142.147918 142.147918 0 0 1-26.874776-47.563755c-6.269388-18.285714-9.404082-38.410449-9.404082-60.457796v-10.741551c0-19.35151 3.301878-37.616327 9.905633-54.836245a134.95902 134.95902 0 0 1 28.504816-44.84702 133.32898 133.32898 0 0 1 45.682939-30.385633c17.930449-7.147102 38.159673-10.741551 60.72947-10.741551 18.808163 0 35.568327 2.507755 50.238693 7.523265 14.691265 5.22449 27.230041 11.828245 37.616327 19.894857 5.078204 3.824327 9.592163 7.774041 13.625469 11.786449 7.314286 7.27249 6.394776 18.870857-0.606041 26.456817l-8.150204 8.839836c-8.505469 9.257796-22.778776 9.132408-33.68751 2.842123l-2.465959-1.525551a81.92 81.92 0 0 0-12.768653-7.27249 94.270694 94.270694 0 0 0-38.974694-8.08751 74.689306 74.689306 0 0 0-30.364735 5.93502 65.034449 65.034449 0 0 0-22.569796 16.634776 78.576327 78.576327 0 0 0-14.23151 25.558204 96.130612 96.130612 0 0 0-4.012408 18.264816h163.589225c12.18351 0 22.068245 9.863837 22.068244 22.005551v10.24c0 21.315918-2.779429 40.646531-8.338285 58.033633-5.558857 17.554286-13.792653 32.600816-24.701388 45.139592a107.41551 107.41551 0 0 1-40.04049 29.006367c-15.966041 6.833633-34.230857 10.24-54.836245 10.24z m-0.794122-60.478694c11.995429 0 21.859265-2.486857 29.549714-7.481469 7.711347-5.01551 13.437388-11.828245 17.199021-20.438204 3.970612-8.421878 5.914122-17.993143 5.914122-28.755592a5.914122 5.914122 0 0 0-5.914122-5.914123h-102.755266c0.417959 2.946612 0.877714 5.809633 1.462857 8.568164 2.340571 10.971429 5.726041 20.459102 10.198204 28.525714 4.660245 8.045714 10.657959 14.315102 18.014041 18.808163 7.314286 4.472163 16.112327 6.708245 26.331429 6.708245z"  horiz-adv-x="1050" />
      
      <glyph glyph-name="delay" unicode="&#58883;" d="M502.324245 801.959184c-228.414694-2.779429-412.734694-188.833959-412.734694-417.917388 0-230.838857 187.120327-417.959184 417.959184-417.959184s417.959184 187.120327 417.959183 417.959184h-62.693877c0-196.210939-159.054367-355.265306-355.265306-355.265306s-355.265306 159.054367-355.265306 355.265306c0 194.45551 156.254041 352.423184 350.040816 355.22351v62.693878zM922.812082 328.91297999999995l-62.213225 8.129306a359.444898 359.444898 0 0 1 0 93.037714l62.213225 8.129306a422.347755 422.347755 0 0 0 0-109.296326z m-28.212245 214.789224l-57.950041-24.032653a355.22351 355.22351 0 0 1-46.477061 80.331755l49.737143 38.243265a417.938286 417.938286 0 0 0 54.710857-94.542367z m-131.907919 171.781225l-38.243265-49.758041a355.202612 355.202612 0 0 1-80.331755 46.477061l24.032653 57.970939a417.959184 417.959184 0 0 0 94.542367-54.689959z m-200.035265 82.902204l-8.129306-62.234123a359.549388 359.549388 0 0 1-93.037714 0l-8.129306 62.234123a422.285061 422.285061 0 0 0 109.296326 0z m-214.789224-28.212245l24.032653-57.970939a355.202612 355.202612 0 0 1-80.331755-46.477061l-38.243266 49.737143a417.89649 417.89649 0 0 0 94.542368 54.710857z m-171.781225-131.928817l49.758041-38.243265a355.181714 355.181714 0 0 1-46.477061-80.331755l-57.970939 24.032653a417.938286 417.938286 0 0 0 54.689959 94.542367zM93.204898 438.209306a422.243265 422.243265 0 0 1 0-109.296326l62.213224 8.129306a359.549388 359.549388 0 0 0 0 93.037714l-62.213224 8.129306z m28.212245-214.789224l57.950041 24.032653a355.181714 355.181714 0 0 1 46.477061-80.331755l-49.737143-38.243266a417.875592 417.875592 0 0 0-54.710857 94.542368z m131.907918-171.781225l38.243266 49.758041c24.47151-18.808163 51.471673-34.481633 80.331755-46.477061l-24.032653-57.950041a417.792 417.792 0 0 0-94.542368 54.669061z m200.035266-82.881306l8.129306 62.213225a359.444898 359.444898 0 0 1 93.037714 0l8.129306-62.213225a422.347755 422.347755 0 0 0-109.296326 0z m214.789224 28.212245l-24.032653 57.950041a355.22351 355.22351 0 0 1 80.331755 46.477061l38.243265-49.737143a417.917388 417.917388 0 0 0-94.542367-54.689959z m171.781225 131.907918l-49.758041 38.243266a355.22351 355.22351 0 0 1 46.477061 80.331755l57.970939-24.032653a417.875592 417.875592 0 0 0-54.689959-94.542368zM507.08898 676.8013060000001c-161.436735 0-292.299755-130.86302-292.299756-292.299755 0-161.436735 130.86302-292.299755 292.299756-292.299755 161.436735 0 292.299755 130.86302 292.299755 292.299755 0 161.436735-130.86302 292.299755-292.299755 292.299755z m116.986775-410.31053a39.915102 39.915102 0 0 0-28.504816-11.911837c-10.34449 0-20.647184 3.970612-28.504817 11.911837l-80.624326 81.167673a40.521143 40.521143 0 0 0-11.828245 28.609306v162.502531c0 22.465306 18.034939 40.604735 40.312163 40.604734 22.298122 0 40.333061-18.139429 40.333062-40.604734v-145.575184l68.816979-69.297633c15.736163-15.819755 15.736163-41.586939 0-57.406693z"  horiz-adv-x="1049" />
      
      <glyph glyph-name="flexible" unicode="&#58991;" d="M502.33705365 805.875c222.10714326 0 402.14732163-180.0602677 402.14732162-402.16741095S724.44419607 1.5602682500000356 502.35714298 1.5602682500000356l-5.22321461 0.0200885V184.7142854h203.36383933c11.08928595 0 20.0892854 9.00000027 20.08928623 20.08928623v116.5178573c0 11.08928595-9.00000027 20.0892854-20.08928623 20.0892854H497.11383905v119.24999972H710.88392893c11.10937527 0 20.10937473 9.00000027 20.10937472 20.10937555V611.0491073000001c0 11.10937527-9.00000027 20.0892854-20.08928539 20.0892854H313.91964326a20.0892854 20.0892854 0 0 1-20.12946489-20.0892854V59.758928930000025C177.7142854 130.27232106999998 100.1696427 257.95982162999996 100.1696427 403.68749973 100.1696427 625.8147323000001 280.2299104 805.875 502.33705365 805.875z"  horiz-adv-x="1024" />
      
      <glyph glyph-name="arrow_flexible" unicode="&#58990;" d="M841.589844 779.5078125a65.9179685 65.9179685 0 0 0 65.9179685-65.9179685v-659.179688a65.9179685 65.9179685 0 0 0-65.9179685-65.9179685H182.410156a65.9179685 65.9179685 0 0 0-65.9179685 65.9179685V713.589844a65.9179685 65.9179685 0 0 0 65.9179685 65.9179685h659.179688z m0-21.9726559H182.410156a43.94531258 43.94531258 0 0 1-43.9453126-43.9453126v-659.179688a43.94531258 43.94531258 0 0 1 43.9453126-43.9453126h659.179688a43.94531258 43.94531258 0 0 1 43.9453126 43.9453126V713.589844a43.94531258 43.94531258 0 0 1-43.9453126 43.9453126zM527.51269549 501.70751962l203.64257803-216.36474653c13.20556632-14.01855503 3.2519533-37.06787127-16.0180664-37.06787049H307.87402335c-19.29199202 0-29.22363273 23.04931623-16.04003872 37.06787049l203.64257804 216.36474653a21.9726559 21.9726559 0 0 0 32.03613281 0z"  horiz-adv-x="1024" />
      
      <glyph glyph-name="arrow_3" unicode="&#58931;" d="M315.49649 345.004408a41.837714 41.837714 0 0 0 0 60.52049l357.773061 341.493551C699.872653 772.430367 743.967347 753.55951 743.967347 716.758204v-682.987102c0-36.801306-44.094694-55.672163-70.718694-30.260245l-357.773061 341.493551z"  horiz-adv-x="1024" />
      
      <glyph glyph-name="arrow_4" unicode="&#58986;" d="M542.72 229.83575499999995c-16.509388-17.554286-44.408163-17.554286-60.938449 0L243.941878 482.554776c-25.140245 26.707592-6.206694 70.509714 30.448326 70.509714h475.721143c36.65502 0 55.588571-43.802122 30.469224-70.509714L542.72 229.83575499999995z"  horiz-adv-x="1024" />
      
      <glyph glyph-name="ios_arrow" unicode="&#58988;" d="M864.339592 259.928816L556.909714 576.031347a44.449959 44.449959 0 0 1-63.529796 0L185.991837 259.928816a49.611755 49.611755 0 0 1 0-69.381224 51.220898 51.220898 0 0 1 73.205551 0l257.462857 264.756245a11.849143 11.849143 0 0 0 17.010939 0l257.462857-264.756245a51.220898 51.220898 0 0 1 73.184653 0 49.820735 49.820735 0 0 1 0 69.381224z"  horiz-adv-x="1024" />
      
      <glyph glyph-name="arrow_2" unicode="&#58989;" d="M97.17551 387.761633a41.837714 41.837714 0 0 1 0-60.541388l357.773061-341.493551c26.603102-25.411918 70.697796-6.541061 70.697796 30.260245v195.709388H808.124082a62.756571 62.756571 0 0 1 62.735673 62.756571v167.058286a62.756571 62.756571 0 0 1-62.735673 62.756571H525.646367V698.9740409999999c0 36.822204-44.094694 55.672163-70.718694 30.260245L97.17551 387.761633z"  horiz-adv-x="1024" />
      
      <glyph glyph-name="boostlight" unicode="&#58985;" d="M463.433143 624.493714C242.186449 624.3265309999999 102.964245 444.750367 102.964245 223.25289799999996h22.31902c10.992327 179.137306 119.160163 318.840163 298.422857 319.028245h19.853062l54.669061 79.015184a183.693061 183.693061 0 0 1-34.795102 3.197387zM688.128 595.675429l-14.712163-102.588082a340.197878 340.197878 0 0 0 163.505632-269.938939h101.961143a401.240816 401.240816 0 0 1-250.77551 372.527021zM541.466122 30.281143000000043l184.52898 283.146449a16.718367 16.718367 0 0 1 3.970612 9.654857 16.091429 16.091429 0 0 1-2.779428 9.905633 21.629388 21.629388 0 0 1-8.693551 7.356081 28.086857 28.086857 0 0 1-12.162613 2.716735l-105.05404 40.061388 80.122775 340.741224a16.760163 16.760163 0 0 1-4.660245 11.36849 24.283429 24.283429 0 0 1-12.120816 6.896327 29.089959 29.089959 0 0 1-14.858449-0.31347 23.614694 23.614694 0 0 1-11.702857-7.356081L373.383837 311.06612199999995a16.718367 16.718367 0 0 1-3.949715-9.654857 16.091429 16.091429 0 0 1 2.779429-9.905632c2.006204-3.051102 5.01551-5.600653 8.693551-7.356082 3.678041-1.776327 7.878531-2.716735 12.162612-2.716735h145.115429L498.102857 40.85550999999998c0-4.096 1.650939-8.08751 4.681143-11.36849 3.009306-3.28098 7.27249-5.705143 12.120816-6.896326 4.869224-1.170286 10.072816-1.065796 14.858449 0.313469 4.785633 1.379265 8.881633 3.970612 11.702857 7.37698z"  horiz-adv-x="1024" />
      
      <glyph glyph-name="lock_1" unicode="&#58923;" d="M514.53125 805.875c142.3828125 0 257.81250009-115.42968759 257.81250009-257.81250009v-117.18749982h23.36718741a93.84375037 93.84375037 0 0 0 93.82031241-93.84375036v-281.08593732A93.84375037 93.84375037 0 0 0 795.7109375-37.875H233.37499963a93.84375037 93.84375037 0 0 0-93.84374954 93.82031241V337.03124973A93.84375037 93.84375037 0 0 0 233.37499963 430.87500009h23.34375028v117.18749982c0 142.3828125 115.42968759 257.81250009 257.81250009 257.81250009z m0.51562518-527.9765625a82.10156259 82.10156259 0 1 1 0-164.20312519 82.10156259 82.10156259 0 0 1 0 164.20312519z m-0.51562518 446.03906232a187.50000037 187.50000037 0 0 1-187.50000037-187.49999955V430.87500009h375.00000074v105.56250018a187.50000037 187.50000037 0 0 1-187.50000037 187.49999955z"  horiz-adv-x="1024" />
      
      <glyph glyph-name="lock_2" unicode="&#58974;" d="M512 805.875c142.40624963 0 257.81250009-115.42968759 257.81250009-257.81250009v-117.18749982h23.34375028A93.84375037 93.84375037 0 0 0 886.99999991 337.03124973v-281.08593732A93.84375037 93.84375037 0 0 0 793.15625037-37.875H230.84374963A93.84375037 93.84375037 0 0 0 137.00000009 55.94531241000004V337.03124973A93.84375037 93.84375037 0 0 0 230.84374963 430.87500009H254.18749991v117.18749982C254.18749991 690.44531241 369.64062463 805.875 512 805.875z m0-81.93750019a187.50000037 187.50000037 0 0 1-187.50000037-187.49999954V430.87500009h375.00000074v105.56250018a187.50000037 187.50000037 0 0 1-187.50000037 187.49999955z"  horiz-adv-x="1024" />
      
      <glyph glyph-name="Star_off" unicode="&#58975;" d="M892.175673 470.413061c-4.388571 13.228408-16.404898 22.444408-32.329142 24.78498l-213.033796 30.51102-95.33649 190.798368c-7.084408 14.23151-19.769469 22.757878-33.792 22.757877-14.043429 0-26.749388-8.526367-33.812898-22.778775l-95.33649-190.77747-213.033796-30.61551c-15.945143-2.236082-27.961469-11.556571-32.350041-24.78498-4.388571-13.228408 0-27.710694 11.452082-38.80751l154.185143-148.500898-36.362449-209.731918c-2.15249-12.559673 0.543347-24.116245 7.836735-32.538123 6.520163-7.627755 16.17502-11.995429 26.624-11.995428 6.729143 0 13.583673 1.797224 20.333714 5.266286l190.443102 99.056326 190.589388-99.056326c17.052735-8.860735 36.153469-5.830531 46.915918 6.729142 7.188898 8.421878 9.989224 19.978449 7.753143 32.538123l-36.383347 209.731918 154.185143 148.500898c11.556571 11.096816 15.715265 25.683592 11.452081 38.912z"  horiz-adv-x="1024" />
      
      <glyph glyph-name="Star_on" unicode="&#58978;" d="M895.540245 470.413061c-4.388571 13.228408-16.404898 22.444408-32.350041 24.78498l-213.012898 30.51102-95.357388 190.798368c-7.06351 14.23151-19.748571 22.757878-33.792 22.757877-14.022531 0-26.72849-8.526367-33.792-22.778775l-95.357387-190.77747L178.886531 495.093551c-15.945143-2.236082-27.961469-11.556571-32.350041-24.78498-4.388571-13.228408 0-27.710694 11.452081-38.80751l154.185143-148.500898-36.383347-209.731918c-2.131592-12.559673 0.564245-24.116245 7.857633-32.538123 6.520163-7.627755 16.17502-11.995429 26.624-11.995428 6.729143 0 13.583673 1.797224 20.312816 5.266286l190.464 99.056326 190.56849-99.056326c17.052735-8.860735 36.153469-5.830531 46.936816 6.729142 7.188898 8.421878 9.989224 19.978449 7.732245 32.538123l-36.362449 209.731918 154.185143 148.500898c11.556571 11.096816 15.715265 25.683592 11.452082 38.912z"  horiz-adv-x="1024" />
      
      <glyph glyph-name="blackjack" unicode="&#58914;" d="M212.762122 789.211429A41.837714 41.837714 0 0 1 170.945306 747.41551V119.84979599999997c0-23.092245 18.724571-41.816816 41.837714-41.816816h115.064164v596.218775c0 23.134041 18.724571 41.858612 41.837714 41.858612h287.242449V747.394612a41.837714 41.837714 0 0 1-41.837714 41.837715h-402.285715z m34.20996-57.406694h22.569796v-60.395102c0-16.634776-12.705959-28.504816-30.302041-28.504817-16.049633 0-31.263347 10.804245-31.263347 32.809796H229.877551c0-7.98302 2.612245-12.246204 8.547265-12.246204 5.475265 0 8.568163 3.907918 8.568164 9.257796V731.8047349999999zM405.963755 684.658939a41.837714 41.837714 0 0 1-41.837714-41.837715v-627.523918c0-23.113143 18.724571-41.837714 41.837714-41.837714h402.285714a41.837714 41.837714 0 0 1 41.837715 41.837714V642.821224a41.837714 41.837714 0 0 1-41.816817 41.837715H405.963755z m201.163755-162.586123c17.073633-33.603918 42.213878-77.00898 115.189551-131.239183 124.426449-92.473469 7.314286-221.560163-95.691755-150.528 6.729143-44.073796 29.612408-76.214857 52.871837-90.049306v-14.210613h-144.760163v14.210613c23.259429 13.834449 46.142694 45.97551 52.871836 90.070204-102.985143-71.053061-220.097306 58.033633-95.670857 150.486204 72.975673 54.251102 98.115918 97.656163 115.189551 131.260081z"  horiz-adv-x="1024" />
      
      <glyph glyph-name="bank" unicode="&#58915;" d="M416.705306 450.748082h-34.189061a34.209959 34.209959 0 0 1-34.189061-34.189062v-239.386122a34.189061 34.189061 0 0 1 34.189061-34.189061h34.189061a34.209959 34.209959 0 0 1 34.209959 34.189061V416.55902a34.209959 34.209959 0 0 1-34.209959 34.189062z m170.987102-34.189062v-239.386122a34.189061 34.189061 0 0 1 34.209959-34.189061h34.189062a34.209959 34.209959 0 0 1 34.189061 34.189061V416.55902a34.189061 34.189061 0 0 1-34.189061 34.189062h-34.189062a34.209959 34.209959 0 0 1-34.209959-34.189062z m239.386123 0v-239.386122a34.189061 34.189061 0 0 1 34.189061-34.189061 34.189061 34.189061 0 0 0 34.189061-34.189061v-34.20996a68.378122 68.378122 0 0 0-68.378122-68.39902H211.529143a68.39902 68.39902 0 0 0-68.399021 68.39902v34.20996a34.189061 34.189061 0 0 0 34.20996 34.189061 34.209959 34.209959 0 0 1 34.189061 34.189061V416.55902a34.189061 34.189061 0 0 1-34.189061 34.189062 34.189061 34.189061 0 0 0-34.20996 34.209959v32.45453a34.189061 34.189061 0 0 0 15.903347 28.901878l314.368 198.844082a85.472653 85.472653 0 0 0 91.783837 0l314.368-198.844082a34.209959 34.209959 0 0 0 15.903347-28.901878v-32.45453a34.209959 34.209959 0 0 0-34.189061-34.209959 34.209959 34.209959 0 0 1-34.189061-34.189062z"  horiz-adv-x="1024" />
      
      <glyph glyph-name="card" unicode="&#58916;" d="M587.901388 712.975673a41.837714 41.837714 0 0 1-41.837715-41.837714v-208.896c0-23.092245 18.745469-41.837714 41.837715-41.837714h208.916898a41.837714 41.837714 0 0 1 41.816816 41.837714V671.137959a41.837714 41.837714 0 0 1-41.837714 41.837714h-208.896z m-376.163266 0a41.837714 41.837714 0 0 1-41.816816-41.837714v-208.896c0-23.113143 18.724571-41.837714 41.837714-41.837714h208.896a41.837714 41.837714 0 0 1 41.837715 41.837714V671.137959a41.837714 41.837714 0 0 1-41.837715 41.837714h-208.916898zM546.063673 294.974694c0 23.113143 18.745469 41.837714 41.837715 41.837714h208.916898c23.092245 0 41.816816-18.724571 41.816816-41.837714v-208.896a41.837714 41.837714 0 0 0-41.837714-41.837714h-208.896a41.837714 41.837714 0 0 0-41.837715 41.837714V294.974694z m-334.304653 41.837714A41.837714 41.837714 0 0 1 169.900408 294.974694v-208.896c0-23.092245 18.724571-41.837714 41.837714-41.837714h208.896a41.837714 41.837714 0 0 1 41.837715 41.837714V294.974694a41.837714 41.837714 0 0 1-41.837715 41.837714h-208.916898z"  horiz-adv-x="1024" />
      
      <glyph glyph-name="cashgift" unicode="&#58917;" d="M213.577143 681.377959a41.837714 41.837714 0 0 1-41.837714-41.816816v-19.330612h655.234612c23.113143 0 41.837714-18.724571 41.837714-41.837715v-342.204081h19.330612a41.837714 41.837714 0 0 1 41.837715 41.837714v361.534694A41.837714 41.837714 0 0 1 888.163265 681.377959H213.577143zM94.040816 515.030204c0 23.113143 18.724571 41.837714 41.837715 41.837714h633.291755c23.092245 0 41.837714-18.724571 41.837714-41.837714v-340.615837a41.837714 41.837714 0 0 0-41.837714-41.837714H135.899429A41.837714 41.837714 0 0 0 94.040816 174.41436699999997v340.636735z m452.900572-219.512163c0 56.466286-51.40898 68.963265-85.702531 77.301551l-0.313469 0.062694c-28.630204 6.833633-40.604735 10.678857-40.604735 19.769469 0 12.935837 19.66498 17.533388 36.550531 17.533388a228.832653 228.832653 0 0 0 52.871836-9.299592 29.257143 29.257143 0 0 1 9.404082 56.633469 177.068408 177.068408 0 0 1-43.258775 9.613062v12.935836a24.910367 24.910367 0 0 1-49.799837 0v-14.628571c-45.076898-9.842939-66.037551-43.300571-66.037551-74.814694 0-54.292898 52.892735-67.960163 87.95951-76.841796 2.403265-0.606041 5.099102-1.212082 7.920327-1.83902 14.022531-3.17649 31.075265-7.042612 31.075265-14.607674 0-5.22449 0-17.742367-35.693714-17.742367a256.355265 256.355265 0 0 0-64.114939 13.479184 29.403429 29.403429 0 0 1-10.678857-56.63347c15.903347-6.729143 32.66351-11.284898 49.799836-13.583673v-13.458286a24.889469 24.889469 0 1 1 49.778939 0v13.144816c42.527347 7.147102 70.844082 35.045878 70.844082 72.975674z"  horiz-adv-x="1024" />
      
      <glyph glyph-name="check" unicode="&#58918;" d="M884.715102 564.558367c27.334531 27.961469 28.672 74.563918 3.009306 104.071837-25.662694 29.507918-68.628898 30.740898-95.94253 2.779429L351.12751 220.36897999999997l-140.538775 140.120816c-27.710694 27.648-70.697796 25.829878-96.005225-4.033306-25.307429-29.863184-23.363918-76.486531 4.367674-104.113633l186.890449-186.326204c27.731592-27.648 70.718694-25.850776 96.026122 4.033306 1.12849 1.337469 2.215184 2.716735 3.239184 4.116898a70.844082 70.844082 0 0 1 5.349877 4.952816L884.715102 564.558367z"  horiz-adv-x="1024" />
      
      <glyph glyph-name="checkupdate" unicode="&#58919;" d="M825.929143 411.104653a315.726367 315.726367 0 0 1-73.93698 179.847837 317.23102 317.23102 0 0 1-165.511836 102.671673 321.43151 321.43151 0 0 1-346.613551-136.714449L172.95151 599.875918a401.449796 401.449796 0 0 0 152.805878 138.051919 401.449796 401.449796 0 0 0 201.121959 44.178285c206.63902-8.860735 369.016163-172.888816 379.235265-374.491428l61.75347-2.633143-107.352817-154.603102-91.95102 163.150367 57.364898-2.445061zM189.23102 358.817959a315.726367 315.726367 0 0 1 73.93698-179.847837 317.251918 317.251918 0 0 1 165.511837-102.671673c64.679184-16.091429 132.890122-11.556571 195.061551 12.956735a321.473306 321.473306 0 0 1 151.552 123.757714L842.187755 170.00489800000003a401.470694 401.470694 0 0 0-152.805877-138.03102 401.449796 401.449796 0 0 0-201.12196-44.199184c-206.63902 8.860735-369.016163 172.909714-379.235265 374.533224l-61.774367 2.549551 107.352816 154.603102 91.95102-163.150367-57.364898 2.445061 0.020898 0.062694zM615.52849 171.15428599999996c117.86449 61.022041 163.923592 206.053878 102.880653 323.918367-61.042939 117.86449-206.053878 163.923592-323.918367 102.880653-117.86449-61.022041-163.923592-206.053878-102.880654-323.918367 61.022041-117.86449 206.053878-163.923592 323.918368-102.880653z m38.744816 305.172898c19.330612-12.329796 20.626286-39.873306 2.570449-54.104817l-180.495673-142.356898c-0.417959-0.334367-0.856816-0.668735-1.316572-0.982204a30.782694 30.782694 0 0 0-44.721632 2.612245l-78.346449 93.476572a30.740898 30.740898 0 1 0 47.145795 39.497142l55.71396-66.518204 160.245551 126.36996a33.938286 33.938286 0 0 0 39.204571 2.006204z"  horiz-adv-x="1024" />
      
      <glyph glyph-name="clear" unicode="&#58920;" d="M508.092082-35.568326999999954a417.959184 417.959184 0 1 1-4.054204 835.939266 417.959184 417.959184 0 0 1 4.054204-835.939266zM724.824816 606.354286c16.530286-16.133224 16.843755-42.631837 0.710531-59.141225l-160.036571-163.84 161.959183-161.938285a41.837714 41.837714 0 1 0-59.162122-59.141225l-161.248653 161.227755-161.541225-165.365551a41.837714 41.837714 0 0 0-59.851755 58.47249l162.209959 166.076082-164.132571 164.132571a41.837714 41.837714 0 0 0 59.141224 59.162122l163.463837-163.442938 159.346939 163.108571a41.837714 41.837714 0 0 0 59.141224 0.689633z"  horiz-adv-x="1024" />
      
      <glyph glyph-name="copy" unicode="&#58921;" d="M713.539918 697.887347a62.756571 62.756571 0 0 1-62.756571 62.756571H267.013224a62.756571 62.756571 0 0 1-62.756571-62.735673v-501.446531a62.756571 62.756571 0 0 1 62.756571-62.756571h70.405225v-63.947755a62.756571 62.756571 0 0 1 62.756571-62.756572h384.250776a62.756571 62.756571 0 0 1 62.735673 62.756572v495.072653a62.756571 62.756571 0 0 1-62.735673 62.735673h-70.885878V697.908245zM400.195918 133.726041H650.762449a62.756571 62.756571 0 0 1 62.756571 62.756571V564.809143h70.885878v-495.072653H400.17502v63.968653z"  horiz-adv-x="1024" />
      
      <glyph glyph-name="comment" unicode="&#58922;" d="M884.17285156 779.5078125A69.86529172 69.86529172 0 0 0 954.03814329 709.64252077v-524.95519283a69.86529172 69.86529172 0 0 0-69.86529173-69.86529173h-219.92560919l-88.47742358-90.73414558c-21.14803525-21.68313414-59.88453621-21.68313414-81.00930602 0l-88.47742434 90.73414558H186.35747923A69.86529172 69.86529172 0 0 0 116.4921875 184.68732794000005V709.64252077A69.86529172 69.86529172 0 0 0 186.35747923 779.5078125h697.81537233zM313.22242683 484.13327211a58.06985289 58.06985289 0 1 1 0-116.11644113 58.06985289 58.06985289 0 0 1 0 116.09317569z m222.55457202 0a58.06985289 58.06985289 0 1 1 0-116.11644113 58.06985289 58.06985289 0 0 1 0 116.09317569z m222.6011029 0a58.06985289 58.06985289 0 1 1 0-116.11644113 58.06985289 58.06985289 0 0 1 0 116.09317569z"  horiz-adv-x="1024" />
      
      <glyph glyph-name="cancel" unicode="&#58924;" d="M877.254531 665.1193470000001A62.756571 62.756571 0 1 1 788.48 753.893878l-273.763265-273.763266L240.054857 752.953469a62.756571 62.756571 0 1 1-88.461061-89.025306l274.390204-272.592979L152.492408 117.86449000000005a62.756571 62.756571 0 0 1 88.753633-88.753633l273.763265 273.784163 274.682776-272.864653a62.756571 62.756571 0 0 1 88.461061 89.025306L603.742041 391.648653l273.491592 273.470694z"  horiz-adv-x="1024" />
      
      <glyph glyph-name="expiry" unicode="&#58925;" d="M561.94528864 752.0436882l405.69198882-679.03039739c22.56687859-36.61883163-5.60682226-84.52110331-47.92553637-84.52110331H108.35102814C66.10210881-11.5078125 37.92840797 36.39445840999997 60.44875722 73.01329080999994L466.14074603 752.02042354c22.56687859 36.64209706 76.07597254 36.64209706 95.82780727 0zM514.04301694 209.50800933999994a69.79446956 69.79446956 0 1 1 0-139.58893991 69.79446956 69.79446956 0 0 1 0 139.58893992z m0.51182651 351.57800969a58.20858808 58.20858808 0 0 1-58.20858807-58.20858807v-189.23607311a58.20858808 58.20858808 0 1 1 116.44044082 0V502.87743096a58.20858808 58.20858808 0 0 1-58.23185274 58.20858807z"  horiz-adv-x="1024" />
      
      <glyph glyph-name="facebook" unicode="&#58926;" d="M938.945306 389.22449c0 230.838857-187.120327 417.959184-417.959184 417.959183-230.817959 0-417.959184-187.120327-417.959183-417.959183 0-230.817959 187.141224-417.959184 417.959183-417.959184 230.838857 0 417.959184 187.141224 417.959184 417.959184z m-530.181224 0v79.97649h49.005714v48.378775c0 65.243429 19.497796 112.222041 90.92702 112.222041h84.971102v-79.76751H573.857959c-29.988571 0-36.780408-19.915755-36.780408-40.771919v-40.061387h92.16l-12.559673-79.97649h-79.621225v-241.246041h-79.286857V389.22449H408.764082z"  horiz-adv-x="1024" />
      
      <glyph glyph-name="evenodd" unicode="&#58927;" d="M900.356528 464.80544213h-165.5787104c17.69917867-41.23863893 9.941856-90.90333653-23.69549973-124.5406912l-190.0098176-190.0098176v-64.73351786a66.9403424 66.9403424 0 0 1 66.91805226-66.94034347h312.38826667a66.9403424 66.9403424 0 0 1 66.9180512 66.94034347V397.88739093a66.9403424 66.9403424 0 0 1-66.9180512 66.9180512z m-156.17184213-256.57121066a33.48131733 33.48131733 0 1 0 0 66.9403424 33.48131733 33.48131733 0 0 0 0-66.9403424z m-64.64435414 260.3607072L435.56362453 712.50477227a68.43385067 68.43385067 0 0 1-96.7659104 0L94.86558933 468.57264747a68.43385067 68.43385067 0 0 1 0-96.7436192L338.79771413 127.87461226999994a68.43385067 68.43385067 0 0 1 96.7659104 0l243.954416 243.9321248a68.43385067 68.43385067 0 0 1 0 96.7659104z m-470.83380693-81.8754176a33.48131733 33.48131733 0 1 0 0 66.9626336 33.48131733 33.48131733 0 0 0 0-66.9626336z m178.48529067-178.4852896a33.48131733 33.48131733 0 1 0 0 66.9403424 33.48131733 33.48131733 0 0 0 0-66.9403424z m0 178.4852896a33.48131733 33.48131733 0 1 0 0 66.9626336 33.48131733 33.48131733 0 0 0 0-66.9626336z m0 178.5075808a33.48131733 33.48131733 0 1 0 0 66.94034346 33.48131733 33.48131733 0 0 0 0-66.94034346z m178.5075808-178.5075808a33.48131733 33.48131733 0 1 0 0 66.9626336 33.48131733 33.48131733 0 0 0 0-66.9626336z"  horiz-adv-x="1024" />
      
      <glyph glyph-name="edit" unicode="&#58928;" d="M503.097469 587.1490610000001a62.35951 62.35951 0 0 0 88.461062 3.134694l134.624653-126.014694a63.153633 63.153633 0 0 0 3.134694-88.899918L465.606531 90.71804099999997a63.258122 63.258122 0 0 0-5.726041-5.475265l-41.733225-44.512654c-7.168-11.05502-19.497796-18.452898-35.923592-18.473795l-139.264-0.20898c-31.764898-0.062694-60.854857 29.173551-60.813061 61.105633l0.229878 140.016326c0.020898 14.294204 5.579755 25.49551 14.210612 32.935184l37.908898 40.437551c1.462857 2.048 3.113796 4.054204 4.869224 5.955918l263.732245 284.651102zM696.278204 797.466122m45.840439-42.860721l137.50605-128.567892q45.840439-42.860722 2.979717-88.70116l-28.559541-30.545028q-42.860722-45.840439-88.70116-2.979717l-137.506051 128.567892q-45.840439 42.860722-2.979717 88.70116l28.559542 30.545028q42.860722 45.840439 88.70116 2.979717Z"  horiz-adv-x="1024" />
      
      <glyph glyph-name="discount" unicode="&#58929;" d="M239.804082 305.90432699999997L596.009796 662.757878l-95.169306 92.912326c-28.713796 27.940571-77.740408 27.313633-105.618286-1.170286l-60.771265-62.631183a28.525714 28.525714 0 0 1 0.564245-40.333062 66.246531 66.246531 0 0 0 20.06204-46.853224 66.246531 66.246531 0 0 0-18.954448-47.271184c-24.868571-25.411918-68.733388-25.976163-94.187103-1.128489-5.433469 5.32898-13.10302 7.481469-20.333714 8.150204-7.585959-0.125388-14.837551-3.239184-20.103837-8.672653l-60.604081-62.547592a73.790694 73.790694 0 0 1-21.232327-52.725551c0.188082-19.978449 8.150204-38.723918 22.42351-52.704653l90.300082-88.126694c0.480653 0.940408 0.626939 0.835918 0.91951 0.689632 0.543347-0.334367 1.567347-0.940408 6.478368 5.558858z m656.655673 62.108734L629.86449 623.553306l-358.29551-355.683265a135.690449 135.690449 0 0 1-1.107592-1.107592 20.354612 20.354612 0 0 0-5.287184-4.284082L537.829878 0.10449000000005526a74.417633 74.417633 0 0 1 52.224-21.274123c20.27102 0 39.246367 8.003918 53.415183 22.528l60.708572 62.610286a28.546612 28.546612 0 0 1-0.543347 40.291265 65.995755 65.995755 0 0 0-20.041143 46.811429 66.037551 66.037551 0 0 0 18.954449 47.229388c24.889469 25.49551 68.754286 26.017959 94.124408 1.170285 5.433469-5.308082 13.667265-8.066612 20.333714-8.150204 7.585959 0.125388 14.837551 3.218286 20.124735 8.693551l60.62498 62.484898a74.041469 74.041469 0 0 1 21.232326 52.892735 74.271347 74.271347 0 0 1-22.528 52.662857zM606.772245 342.41306099999997c18.243918-28.254041 45.557551-70.572408 8.568163-109.588898-24.868571-26.206041-62.735673-26.916571-96.820245-3.970612l-8.609959-9.090612a23.698286 23.698286 0 1 0-34.398041 32.642612l8.818939 9.299592a184.236408 184.236408 0 0 0-25.49551 42.004898 28.003265 28.003265 0 0 0 44.512653 32.141061 244.171755 244.171755 0 0 1 35.463837-51.325388c24.659592-23.405714 32.851592-14.753959 36.278857-11.138612 4.973714 5.22449-4.284082 19.058939-11.890939 30.448327-1.525551 2.298776-2.988408 4.472163-4.263184 6.478367-18.390204 29.110857-45.97551 73.226449-10.407183 110.759184 20.68898 21.754776 57.072327 31.137959 94.667755 8.359183l9.613061 10.13551a23.719184 23.719184 0 0 0 34.398041-32.66351l-8.484572-8.923428a168.730122 168.730122 0 0 0 23.614694-35.004082 27.898776 27.898776 0 0 0-43.634939-32.97698 217.965714 217.965714 0 0 1-30.448326 41.106286c-11.661061 11.075918-28.274939 20.772571-36.738612 11.849143-5.955918-6.269388-0.20898-16.781061 15.088326-40.291265l0.167184-0.250776z"  horiz-adv-x="1024" />
      
      <glyph glyph-name="filter" unicode="&#58930;" d="M214.998204 619.060245c0 23.113143 18.724571 41.837714 41.837714 41.837714h125.304164c23.092245 0 41.837714-18.724571 41.837714-41.837714v-20.856163h459.734204a41.795918 41.795918 0 1 0 0-83.591837h-459.755102v-20.856163a41.837714 41.837714 0 0 0-41.816816-41.837715H256.835918a41.837714 41.837714 0 0 0-41.837714 41.837715v20.856163H131.385469a41.795918 41.795918 0 1 0 0 83.591837h83.591837v20.856163z m376.163265-334.367347c0 23.092245 18.703673 41.837714 41.816817 41.837714h125.304163c23.113143 0 41.837714-18.724571 41.837714-41.837714v-20.856163h83.591837a41.795918 41.795918 0 0 0 0-83.591837h-83.591837v-20.856163a41.837714 41.837714 0 0 0-41.837714-41.837715H632.999184a41.837714 41.837714 0 0 0-41.837715 41.837715v20.856163h-459.755102a41.795918 41.795918 0 1 0 0 83.591837h459.755102v20.856163z"  horiz-adv-x="1024" />
      
      <glyph glyph-name="a-footballcom" unicode="&#58932;" d="M379.151673 473.485061H807.915102v-183.024326H379.151673v-150.611592c0-78.63902-61.878857-142.419592-140.288-142.419592H192.867265V750.194939H811.049796v-184.006531H379.151673v-92.703347zM703.111837-27.14644899999996c67.124245 0 121.542531 54.16751 121.54253 120.999184s-54.418286 120.999184-121.54253 120.999183c-67.124245 0-121.521633-54.16751-121.521633-120.999183s54.418286-120.999184 121.521633-120.999184z"  horiz-adv-x="1024" />
      
      <glyph glyph-name="football_coins" unicode="&#58933;" d="M578.76590381 779.5078125c211.94698682 0 383.75558057-175.37946462 383.75558057-391.80133961 0-216.421875-171.80859375-391.82393995-383.75558056-391.82393919-10.7578125 0-21.42522289 0.45200903-31.95703127 1.35602635 196.96289063 16.58872779 351.73074756 185.07505591 351.73074832 390.46791284C898.53962087 593.09933058 743.77176318 761.5856587000001 546.80887255 778.15178539 557.31808059 779.05580347 568.00809132 779.5078125 578.76590381 779.5078125z m-138.54073606 0c211.94698682 0 383.73298025-175.40206495 383.73297947-391.80133961 0-216.421875-171.78599342-391.82393995-383.75558057-391.82393919C228.30078126-4.117466300000046 56.49218751 171.28459787999998 56.49218751 387.70647289 56.49218751 604.1057475499999 228.25558059 779.5078125 440.22516777 779.5078125z m80.38978784-472.50753371c-34.53348192 0-62.53543506-26.82673024-62.53543582-59.93638403 0-33.08705346 28.00195313-59.9137837 62.53543582-59.91378293 34.53348192 0 62.53543506 26.82673024 62.53543504 59.91378293 0 33.1096538-28.02455346 59.93638404-62.53543504 59.93638405z m55.57449754 265.10323683H258.08816943v-372.7943635h23.66266775c40.34179689 0 72.18582567 31.572824 72.18582566 70.5133923v74.58147366h220.58035693V435.07700903h-220.58035692V480.95591529h222.23018994V572.08091529z"  horiz-adv-x="1024" />
      
      <glyph glyph-name="freebet_gift" unicode="&#58934;" d="M858.174694 333.84489799999994l62.171428-8.108408a421.616327 421.616327 0 0 1 0 109.170939l-62.171428-8.108409a359.131429 359.131429 0 0 0 0-92.954122z m-23.928163 182.439184l57.908245 24.032653a417.541224 417.541224 0 0 1-54.627266 94.458775l-49.716245-38.201469c18.808163-24.450612 34.481633-51.40898 46.435266-80.269061z m-112.075755 145.951347l38.201469 49.695347a417.541224 417.541224 0 0 1-94.458776 54.648163l-24.032653-57.929143c28.860082-11.953633 55.797551-27.627102 80.28996-46.435265zM552.395755 732.577959l8.108408 62.171429a421.929796 421.929796 0 0 1-109.170939 0l8.108409-62.171429a359.21502 359.21502 0 0 0 92.954122 0z m-182.439184-23.928163l-24.032653 57.929143a417.541224 417.541224 0 0 1-94.458775-54.648163l38.201469-49.716245c24.47151 18.808163 51.429878 34.481633 80.269061 46.435265z m-145.930449-112.075755L174.28898 634.7755099999999a417.541224 417.541224 0 0 1-54.627266-94.458775l57.887347-24.032653a354.784653 354.784653 0 0 0 46.456163 80.289959zM87.95951 380.321959c0 18.515592 1.212082 36.717714 3.531755 54.58547l62.171429-8.108409a359.21502 359.21502 0 0 1 0-92.954122l-62.171429-8.108408a421.929796 421.929796 0 0 0-3.531755 54.585469z m89.631347-135.962122l-57.908245-24.032653a417.541224 417.541224 0 0 1 54.627266-94.458776l49.716244 38.20147c-18.808163 24.47151-34.481633 51.429878-46.435265 80.289959z m112.075755-145.930449l-38.201469-49.716245a417.624816 417.624816 0 0 1 94.458775-54.627265l24.032653 57.908244a354.847347 354.847347 0 0 0-80.289959 46.435266z m169.775021-70.363429l-8.108409-62.171428a421.574531 421.574531 0 0 1 109.170939 0l-8.108408 62.171428a359.131429 359.131429 0 0 0-92.954122 0z m182.439183 23.928163l24.032653-57.908244a417.624816 417.624816 0 0 1 94.458776 54.627265l-38.201469 49.716245c-24.47151-18.808163-51.429878-34.481633-80.269062-46.435266z m145.930449 112.096654l49.716245-38.20147a417.541224 417.541224 0 0 1 54.627266 94.458776l-57.887347 24.011755a354.805551 354.805551 0 0 0-46.456164-80.269061z m10.657959 216.231183c0-161.58302-130.988408-292.571429-292.571428-292.571428s-292.571429 130.988408-292.571429 292.571428 130.988408 292.571429 292.571429 292.571429 292.571429-130.988408 292.571428-292.571429z m-183.693061-56.737959c0 65.118041-59.266612 79.516735-98.847347 89.129796l-0.334367 0.083592c-33.018776 7.899429-46.832327 12.329796-46.832327 22.799673 0 14.921143 22.674286 20.208327 42.151184 20.208327 20.68898-1.149388 41.148082-4.764735 60.980245-10.720653a33.771102 33.771102 0 0 1 10.866939 65.32702 204.298449 204.298449 0 0 1-49.925225 11.075918v14.921143a28.713796 28.713796 0 1 1-57.427592 0v-16.885551c-51.994122-11.347592-76.152163-49.904327-76.152163-86.266775 0-62.589388 61.022041-78.367347 101.417796-88.607347 2.779429-0.689633 5.893224-1.400163 9.153306-2.131592 16.17502-3.657143 35.819102-8.108408 35.819102-16.843755 0-6.018612 0-20.438204-41.148081-20.438204a295.747918 295.747918 0 0 0-73.93698 15.527184 33.89649 33.89649 0 0 1-12.329796-65.327021c18.369306-7.732245 37.67902-13.019429 57.427592-15.631673v-15.548082a28.713796 28.713796 0 1 1 57.427592 0v15.171918c49.04751 8.254694 81.71102 40.416653 81.71102 84.156082z"  horiz-adv-x="1024" />
      
      <glyph glyph-name="FTV" unicode="&#58935;" d="M858.341878 496.577306c97.38449-60.666776 97.38449-171.843918 0-232.489796L431.626449-1.7972240000000284c-133.12-82.923102-336.164571-12.705959-336.164571 116.255346V646.206694c0 128.940408 203.044571 199.157551 336.164571 116.234449l426.736327-265.863837z m-270.962939-32.684408h-203.629715v-46.853225h71.471021v-159.32604h60.666775v159.32604h71.491919v46.853225z m235.20653 0H755.252245l-46.936816-102.107429-46.915919 102.107429h-67.354122l113.643102-208.979592h1.253877l113.643102 208.979592z m-456.411428-84.511347h-130.465959v28.316735h131.406367v56.194612h-188.081633v-229.877551h14.001633c23.844571 0 42.673633 19.476898 42.673633 43.488653v45.996408h130.445061v55.881143z"  horiz-adv-x="1024" />
      
      <glyph glyph-name="group" unicode="&#58936;" d="M904.944327 497.789388a380.593633 380.593633 0 0 1-83.487347 122.169469 389.914122 389.914122 0 0 1-123.987592 82.254367 391.084408 391.084408 0 0 1-151.719184 30.176654c-43.154286 0-85.263673-6.812735-125.387755-20.250123-93.727347 43.091592-201.957878 46.393469-232.970449 46.393469-2.298776 0-7.627755 0-9.675755-0.167183a37.720816 37.720816 0 0 1-17.136327-4.660245c-5.22449-2.904816-9.696653-7.000816-12.977632-11.953633a36.404245 36.404245 0 0 1-3.406368-33.854694l66.079347-163.714612a379.318857 379.318857 0 0 1-54.292898-195.751184c0-52.01502 10.302694-102.274612 30.636409-149.524897a379.047184 379.047184 0 0 1 83.508244-122.044082 389.914122 389.914122 0 0 1 123.945796-82.275265 391.627755 391.627755 0 0 1 151.76098-30.176653 393.299592 393.299592 0 0 1 149.232326 29.069061 388.702041 388.702041 0 0 1 126.453551 83.382857 383.540245 383.540245 0 0 1 83.508245 122.148571 375.933388 375.933388 0 0 1 30.594613 149.524898 375.327347 375.327347 0 0 1-30.678204 149.253225z m-334.471837-79.997388a37.407347 37.407347 0 0 0-11.723755-25.6c-7.105306-6.729143-16.59298-10.490776-26.456817-10.490776s-19.330612 3.761633-26.456816 10.490776a37.407347 37.407347 0 0 0-11.723755 25.6v55.797551a37.407347 37.407347 0 0 0 11.849143 25.39102c7.105306 6.645551 16.509388 10.34449 26.331428 10.34449 9.780245 0 19.205224-3.698939 26.310531-10.34449 7.105306-6.645551 11.326694-15.736163 11.828245-25.370122v-55.818449h0.041796z m180.224 0a37.407347 37.407347 0 0 0-11.723755-25.6c-7.105306-6.729143-16.59298-10.490776-26.456817-10.490776s-19.330612 3.761633-26.456816 10.490776a37.407347 37.407347 0 0 0-11.723755 25.6v55.797551a37.407347 37.407347 0 0 0 11.849143 25.39102c7.105306 6.645551 16.509388 10.34449 26.331428 10.34449 9.780245 0 19.205224-3.698939 26.310531-10.34449 7.105306-6.645551 11.326694-15.736163 11.828245-25.370122v-55.818449h0.041796z"  horiz-adv-x="1024" />
      
      <glyph glyph-name="golddollar" unicode="&#58937;" d="M601.26590381 779.5078125c211.94698682 0 383.75558057-175.37946462 383.75558057-391.80133961 0-216.421875-171.80859375-391.82393995-383.75558056-391.82393919-10.7578125 0-21.42522289 0.45200903-31.95703126 1.35602635 196.96289063 16.58872779 351.73074756 185.07505591 351.73074831 390.46791284C921.03962087 593.09933058 766.27176318 761.5856587000001 569.30887256 778.15178539 579.81808059 779.05580347 590.50809132 779.5078125 601.26590381 779.5078125z m-138.54073606 0c211.94698682 0 383.73298024-175.40206495 383.73297947-391.80133961 0-216.421875-171.78599342-391.82393995-383.75558058-391.82393919C250.80078126-4.117466300000046 78.99218751 171.28459787999998 78.99218751 387.70647288 78.99218751 604.1057475499999 250.75558059 779.5078125 462.72516775 779.5078125z m80.38978784-472.5075337c-34.53348192 0-62.53543506-26.82673024-62.53543583-59.93638404 0-33.08705346 28.00195313-59.9137837 62.53543583-59.91378293 34.53348192 0 62.53543506 26.82673024 62.53543504 59.91378293 0 33.1096538-28.02455346 59.93638404-62.53543504 59.93638404z m55.57449754 265.10323682H280.58816943v-372.7943635h23.66266774c40.34179688 0 72.18582568 31.572824 72.18582567 70.5133923v74.58147366h220.58035692V435.07700904h-220.58035692V480.95591529h222.23018995V572.08091529z"  horiz-adv-x="1024" />
      
      <glyph glyph-name="Home" unicode="&#58938;" d="M541.319837 753.350531a41.837714 41.837714 0 0 1-57.699266 0L148.939755 434.614857c-27.355429-26.038857-8.923429-72.118857 28.839184-72.118857h51.659755v-249.312653c0-1.421061 0.062694-2.800327 0.208979-4.179592v-52.453877c0-23.092245 18.724571-41.816816 41.816817-41.816817h125.178775a41.837714 41.837714 0 0 1 41.837715 41.837715v126.516244c0 1.964408-0.146286 3.88702-0.41796 5.767837v38.347755c0 23.092245 18.745469 41.816816 41.858613 41.816817h70.656c23.113143 0 41.837714-18.724571 41.837714-41.816817v-155.877877h0.564245v-14.753959c0-23.113143 18.724571-41.837714 41.837714-41.837715h125.659429a41.837714 41.837714 0 0 1 41.837714 41.837715v126.516244c0 2.716735-0.250776 5.349878-0.752327 7.941225V362.475102h45.578449c37.762612 0 56.21551 46.08 28.860082 72.118857L541.319837 753.350531z"  horiz-adv-x="1024" />
      
      <glyph glyph-name="global" unicode="&#58939;" d="M512 779.5078125c218.39941406 0 395.5078125-177.08862305 395.5078125-395.5078125 0-216.12524414-173.43017578-391.80981445-388.70507813-395.44848633l-8.02880859-0.03955078C292.88867187-10.795898439999974 116.4921875 166.03564453 116.4921875 384 116.4921875 599.74951172 289.21044922 775.11767578 503.93164062 779.38916016L512 779.5078125z m-24.08642578-590.57226563a528.3984375 528.3984375 0 0 1-92.1928711-12.26074218c12.89355469-38.30493164 28.87207031-69.78735352 46.17553711-93.14208985 15.10839844-20.40820313 30.84960938-34.11254883 46.01733399-41.17236328v146.57519531z m48.15307617 0v-146.02148437c15.02929688 7.25756836 30.57275391 21.02124023 45.50317383 41.29101562 17.16503906 23.33496094 32.98535156 54.6394043 45.7800293 92.64770508a530.25732422 530.25732422 0 0 1-91.28320313 12.08276367z m137.99267578-24.73901367c-14.27783203-43.56518555-32.76782227-81.25708008-54.54052734-110.42578125a347.43383789 347.43383789 0 0 1 131.76342773 78.74560547 529.62451172 529.62451172 0 0 1-77.22290039 31.68017578z m-324.98876953-0.27685547c-26.41992188-8.50341797-51.93017578-19.02392578-76.37255859-31.38354492a347.69091797 347.69091797 0 0 1 130.51757812-78.36987304c-21.59472656 29.06982422-39.94628906 66.52441406-54.14501953 109.75341796z m-32.35253906 196.01367188H165.53515625a345.47607422 345.47607422 0 0 1 73.6237793-190.63476563 578.82568359 578.82568359 0 0 0 96.8203125 40.97460938c-10.91601563 45.64160156-17.65942383 96.24682617-19.24145508 149.66015625z m541.76660156 0h-152.19140625c-1.58203125-53.29467773-8.28588867-103.76147461-19.18212891-149.34375a580.60546875 580.60546875 0 0 0 97.74975586-41.27124024 345.41674805 345.41674805 0 0 1 73.6237793 190.61499024z m-370.57104492 0h-122.80517578c1.52270508-50.2097168 7.71240234-96.28637695 17.40234375-136.92480469a576.45263672 576.45263672 0 0 0 105.40283203 14.09985352v122.80517578z m170.0090332 0h-121.85595703v-122.84472656c35.75390625-1.44360352 70.6574707-6.16992188 104.49316406-13.88232422 9.63061523 40.61865234 15.8203125 86.61621094 17.36279297 136.72705078z m-275.39208984 185.1965332c-9.68994141-40.67797852-15.89941406-86.81396484-17.44189453-137.04345703h122.82495117v123.00292969a578.01489258 578.01489258 0 0 0-105.38305664 14.04052734z m257.98974609-0.1977539a577.44140625 577.44140625 0 0 0-104.45361328-13.86254883v-123.00292969h121.85595703c-1.54248047 50.17016602-7.73217773 96.22705078-17.40234375 136.88525391z m144.26147461 53.86816406a579.89355469 579.89355469 0 0 0-97.69042969-41.25146485c10.89624023-45.60205078 17.61987305-96.10839844 19.18212891-149.48217773h152.19140625a345.55517578 345.55517578 0 0 1-73.68310547 190.73364258z m-545.64257812-0.09887695a345.49584961 345.49584961 0 0 1-73.6237793-190.63476563h151.20263672c1.58203125 53.43310547 8.30566406 104.03833008 19.24145508 149.67993164a576.51196289 576.51196289 0 0 0-96.8203125 40.95483399z m296.92749023 126.36474609v-145.82373047a529.78271484 529.78271484 0 0 1 91.24365234 12.06298828c-12.79467773 37.96875-28.61499023 69.23364258-45.7602539 92.54882813-14.91064453 20.25-30.47387695 33.99389648-45.48339844 41.23168945z m-48.13330078 0.57348633c-15.14794922-7.04003906-30.86938477-20.74438477-45.9777832-41.11303711-17.3034668-23.33496094-33.26220703-54.77783203-46.17553711-93.00366211 29.86083984-6.72363281 60.63134766-10.87646484 92.15332031-12.28051758V725.63964844z m131.58544922-11.390625c21.75292969-29.16870117 40.22314453-66.80126953 54.48120117-110.28735352 26.69677734 8.54296875 52.46411133 19.16235352 77.18334961 31.640625A347.65136719 347.65136719 0 0 1 619.51879883 714.24902344z m-216.30322266-0.39550782a347.47338867 347.47338867 0 0 1-130.39892578-78.27099609 530.77148438 530.77148438 0 0 1 76.29345703-31.34399414c14.17895508 43.16967773 32.55029297 80.56494141 54.10546875 109.59521484z"  horiz-adv-x="1024" />
      
      <glyph glyph-name="list" unicode="&#58940;" d="M208.958694 577.1598369999999a73.205551 73.205551 0 1 1 0 146.432 73.205551 73.205551 0 0 1 0-146.432z m177.799837 135.98302a62.756571 62.756571 0 1 1 0-125.513143h439.275102a62.756571 62.756571 0 0 1 0 125.513143h-439.275102z m-104.594286-337.794612a73.205551 73.205551 0 1 0-146.411102 0 73.205551 73.205551 0 0 0 146.411102 0z m104.594286 62.756571a62.756571 62.756571 0 0 1 0-125.513143h439.275102a62.756571 62.756571 0 0 1 0 125.513143h-439.275102z m-104.594286-334.994285a73.205551 73.205551 0 1 0-146.411102 0 73.205551 73.205551 0 0 0 146.411102 0z m104.594286 62.777469a62.756571 62.756571 0 0 1 0-125.513143h439.275102a62.756571 62.756571 0 0 1 0 125.513143h-439.275102z"  horiz-adv-x="1024" />
      
      <glyph glyph-name="light_tip" unicode="&#58941;" d="M641.80780063 66.92307668000001a43.26923117 43.26923117 0 1 0 0-86.5384615H382.19241607a43.26923117 43.26923117 0 0 0 0 86.5384615h259.61538456zM513.16837705 805.875c6.2524042 0 12.48317332-0.19471179 18.69230813-0.56250027C713.80780036 795.01442303 858.153954 644.2211542 858.153954 459.72115393c0-108.45432725-49.88942304-205.26923117-127.94711516-268.74519214a64.90384634 64.90384634 0 0 0-55.94711545-97.83173062h-324.5192309a64.90384634 64.90384634 0 0 0-55.94711544 97.8533649A345.50480786 345.50480786 0 0 0 165.84626187 459.72115393C165.84626187 648.61298089 317.15876242 802.19711518 505.18520429 805.81009634l8.00480785 0.06490366z m9.88701965-161.11298062a17.78365366 17.78365366 0 0 1-19.94711518-7.16105786l-138.56971179-207.84374973a17.74038427 17.74038427 0 0 1 14.79807725-27.62740393h108.95192303v-130.84615366a17.78365366 17.78365366 0 0 1 32.53846151-9.84375027l138.56971098 207.84374973a17.78365366 17.78365366 0 0 1-14.77644214 27.62740393h-108.95192304V627.7572112400001a17.78365366 17.78365366 0 0 1-12.61298062 17.00480814z"  horiz-adv-x="1024" />
      
      <glyph glyph-name="import" unicode="&#58942;" d="M874.684082 290.79510200000004c55.525878 52.704653 55.525878 149.253224 0 201.93698L631.348245 723.654531c-75.922286 72.014367-191.717878 11.034122-191.717878-100.978939v-98.826449c-178.886531-26.853878-317.398204-192.470204-317.398204-391.648653 0-36.822204 4.91102-75.399837 16.342204-110.466612 3.28098-12.267102 13.082122-19.288816 22.883266-19.288817 9.822041 0 19.623184 7.021714 22.883265 17.533388 35.066776 125.931102 136.965224 219.846531 255.289469 240.43102v-99.557877c0-112.013061 115.795592-172.993306 191.717878-100.958041l243.335837 230.922449z"  horiz-adv-x="1024" />
      
      <glyph glyph-name="license" unicode="&#58943;" d="M739.78841146 308.5969701a149.7798777 149.7798777 0 1 0-1e-8-299.58113368 149.7798777 149.7798777 0 0 0 0 299.58113368zM763.15544097 779.5078125A48.12368037 48.12368037 0 0 0 811.25774228 731.38413213v-345.11797897a32.70956521 32.70956521 0 0 0-42.00934356-31.4695949 192.40920602 192.40920602 0 0 1-86.92620332 5.04539659c-82.73595873-13.91759935-148.43301292-83.24904977-158.09623128-166.56223591a191.74646315 191.74646315 0 0 1 32.83783796-132.31339679c14.98653954-21.59258835-1.0689402-51.09533373-27.36486498-51.09533372H218.03878085A48.14505942 48.14505942 0 0 0 169.89372222 57.9946688V731.40551119A48.12368037 48.12368037 0 0 0 218.0174018 779.5078125H763.15544097z m23.40978606-564.78515625l-68.71146488-70.33625424-30.42203376 30.3578966a26.29592477 26.29592477 0 0 1-39.315614-1.66754591 32.00406423 32.00406423 0 0 1 1.79581866-42.60795004l49.38502972-49.25675694c11.35214333-11.33076427 28.94689623-10.58250597 39.33699382 1.64616763l1.28272762 1.64616762c0.76963658 0.64136381 1.49651582 1.32548573 2.24477412 2.07374403l82.45803414 84.4035054c11.18111245 11.45903703 11.73696161 30.52892748 1.2399703 42.60794927a26.29592477 26.29592477 0 0 1-39.29423574 1.13307658zM500.7520409 438.02422897H287.41298939a32.00406423 32.00406423 0 0 1 0-63.9867502h213.36043055a32.00406423 32.00406423 0 0 1 0 63.9867502z m85.34417284 128.01625848H287.41298939a32.00406423 32.00406423 0 0 1 0-64.00812923h298.66184529a32.00406423 32.00406423 0 0 1 0 64.00812924z m64.00812924 127.99488022H287.41298939a32.00406423 32.00406423 0 0 1 0-63.98675096h362.69135359a32.00406423 32.00406423 0 0 1 0 63.98675096z"  horiz-adv-x="1024" />
      
      <glyph glyph-name="figerprint" unicode="&#58944;" d="M142.377796 249.438041c11.493878 6.415673 48.901224 34.523429 48.901224 126.76702 0 25.411918 3.009306 50.698449 8.923429 75.169959a16.801959 16.801959 0 1 1-32.684408 7.941225 353.865143 353.865143 0 0 1-9.842939-83.111184c0-71.993469-25.432816-93.204898-30.761796-96.820245-7.941224-2.821224-15.631673-5.914122-23.134041-9.404081 2.925714-10.992327 6.269388-21.796571 10.093715-32.391837 8.338286 4.012408 16.927347 7.544163 25.808979 10.657959a16.17502 16.17502 0 0 1 2.716735 1.191184zM332.382041 331.378939a16.739265 16.739265 0 0 1-14.921143 18.473796 16.781061 16.781061 0 0 1-18.515592-14.921143c-15.46449-144.927347-110.257633-179.492571-113.852082-180.767347-8.359184-2.716735-16.363102-6.018612-23.886367-10.031021 6.35298-9.404082 13.123918-18.599184 20.312816-27.459918 4.513959 2.15249 9.278694 4.033306 14.210613 5.600653 4.827429 1.713633 118.951184 43.21698 136.672653 209.10498zM349.560163 164.090776a16.822857 16.822857 0 0 1-28.107755 18.473795c-46.560653-70.739592-108.606694-91.595755-111.072653-92.389877-1.462857-0.459755-2.925714-0.982204-4.346775-1.525551 8.526367-8.923429 17.533388-17.533388 26.895673-25.725388 23.719184 10.386286 75.441633 38.661224 116.63151 101.146123zM169.816816 185.970939c15.548082 6.269388 93.184 44.972408 93.184 190.234122 0 110.989061 71.220245 207.76751 177.235592 240.807184a16.801959 16.801959 0 0 1-9.989224 32.099265 284.630204 284.630204 0 0 1-200.871184-272.906449c0-124.11298-62.526694-155.041959-71.721796-158.887183-10.574367-3.552653-20.68898-7.815837-30.343837-12.831347 4.618449-10.219102 9.696653-20.208327 15.192817-29.946776 8.359184 4.30498 17.136327 8.024816 26.268734 11.034123 0.376163 0.125388 0.689633 0.20898 1.044898 0.417959zM453.276735 215.060898c8.609959 25.328327 15.109224 52.453878 19.226122 80.666122a16.801959 16.801959 0 1 1-33.227755 4.806531 422.535837 422.535837 0 0 0-17.805061-74.605714c-38.452245-112.786286-115.691102-165.950694-157.696-187.412898 10.219102-7.397878 20.835265-14.315102 31.723102-20.730776 48.734041 28.797388 120.455837 87.646041 157.779592 197.276735zM545.394939 376.267755a16.822857 16.822857 0 0 1-33.603919 0c0-139.786449-43.091592-251.883102-127.937306-333.301551a384.543347 384.543347 0 0 0-54.230204-43.321469c11.953633-5.705143 24.241633-10.762449 36.843102-15.297306a422.870204 422.870204 0 0 1 39.350857 33.165061c63.69698 60.52049 139.598367 171.906612 139.598368 358.734367zM555.133388 150.402612a16.843755 16.843755 0 0 1-22.193633-8.568163c-25.140245-56.967837-60.102531-106.997551-103.946449-148.68898-7.794939-7.439673-15.589878-14.294204-23.322122-20.688979 13.583673-3.469061 27.43902-6.206694 41.56604-8.275592l4.931919 4.618449c47.062204 44.742531 84.574041 98.40849 111.51151 159.451429a16.760163 16.760163 0 0 1-8.568163 22.151836zM569.824653 484.644571a16.801959 16.801959 0 1 1 13.144816 30.991674 150.590694 150.590694 0 0 1-58.869551 11.870041c-83.424653 0-151.280327-67.876571-151.280326-151.280327 0-41.16898-5.057306-79.433143-15.004735-113.726694a16.864653 16.864653 0 0 1 16.175021-21.524898c7.27249 0 14.001633 4.806531 16.133224 12.162613 10.804245 37.344653 16.321306 78.74351 16.321306 123.088979a117.76 117.76 0 0 0 163.380245 108.418612zM574.046041 206.430041a16.781061 16.781061 0 0 1 20.354612 12.288c12.099918 49.172898 18.243918 102.19102 18.243918 157.570612a84.135184 84.135184 0 0 1-84.051591 84.030694 84.135184 84.135184 0 0 1-84.051592-84.030694 16.822857 16.822857 0 0 1 33.624816 0 50.447673 50.447673 0 0 0 100.853551 0c0-52.662857-5.830531-102.985143-17.261714-149.504a16.760163 16.760163 0 0 1 12.288-20.354612zM659.748571 443.245714a16.801959 16.801959 0 1 1-30.113959-14.921143c8.066612-16.27951 12.141714-33.792 12.141715-52.098612 0-207.516735-80.812408-339.006694-154.958368-415.932081a414.699102 414.699102 0 0 1 45.620245 0.208979c71.993469 83.75902 142.942041 216.837224 142.942041 415.723102a150.151837 150.151837 0 0 1-15.631674 67.019755zM685.829224 140.831347a16.864653 16.864653 0 0 1-21.462204-10.24 602.697143 602.697143 0 0 0-89.296979-165.386449c16.760163 2.654041 33.227755 6.373878 49.25649 11.034122a640.146286 640.146286 0 0 1 71.721796 143.130123 16.801959 16.801959 0 0 1-10.219103 21.462204zM712.620408 254.286367a16.843755 16.843755 0 0 1 18.808163 14.524082c4.430367 34.60702 6.729143 70.781388 6.729143 107.436408 0 120.497633-98.032327 218.529959-218.529959 218.529959-104.65698 0-194.936163-74.54302-214.622041-177.298285a16.801959 16.801959 0 1 1 32.997878-6.35298 185.093224 185.093224 0 0 0 181.624163 150.047347c101.940245 0 184.905143-82.944 184.905143-184.926041 0-35.233959-2.194286-69.966367-6.457469-103.131428a16.781061 16.781061 0 0 1 14.524081-18.829062zM731.34498 562.907429a285.946776 285.946776 0 0 1-172.094694 95.670857 16.781061 16.781061 0 1 1-5.140898-33.227755c121.521633-18.912653 213.180082-126.014694 213.180081-249.124572 0-164.04898-42.631837-289.938286-97.802449-384.188081 18.181224 7.606857 35.756408 16.48849 52.53747 26.540408 45.933714 92.828735 78.889796 210.609633 78.889796 357.647673 0 68.482612-24.701388 134.791837-69.590204 186.68147zM779.514776 548.404245a16.906449 16.906449 0 0 1 23.259428-5.01551 16.781061 16.781061 0 0 1 5.036408 23.196734c-65.452408 101.856653-176.525061 162.648816-297.148081 162.648817a353.844245 353.844245 0 0 1-288.224653-149.357715 16.822857 16.822857 0 1 1 27.43902-19.456 320.219429 320.219429 0 0 0 260.806531 135.188898c109.087347 0 209.606531-55.003429 268.831347-147.205224zM517.01551 796.358531a302.18449 302.18449 0 0 1-8.986122 0.125387h-0.898612C276.48 796.003265 89.652245 608.903837 89.652245 378.148571c0-24.868571 2.15249-49.235592 6.352979-72.892081l3.761633 1.567347a16.718367 16.718367 0 0 1 8.651755 7.794939c5.078204 9.633959 11.117714 28.149551 11.117715 61.648979 0 213.159184 173.453061 386.612245 386.612244 386.612245 213.20098 0 386.612245-173.453061 386.612245-386.612245 0-74.64751-7.606857-142.733061-20.793469-204.59102a416.705306 416.705306 0 0 1 54.418286 205.51053v0.961306c0 228.059429-182.48098 413.445224-409.391021 418.20996zM846.848 393.069714a16.822857 16.822857 0 0 1-16.801959-16.822857c0-128.877714-24.387918-236.314122-60.750368-324.879673a420.487837 420.487837 0 0 1 54.648164 52.474775c24.492408 78.367347 39.706122 168.730122 39.706122 272.404898a16.822857 16.822857 0 0 1-16.781061 16.822857z"  horiz-adv-x="1024" />
      
      <glyph glyph-name="jackpot" unicode="&#58945;" d="M715.95181119 779.5078125a65.96373075 65.96373075 0 0 0 65.98569766-65.96373075v-65.10706006a65.67817412 65.67817412 0 0 0 29.434365 3.62438106l100.91154883-10.54365352a65.96373075 65.96373075 0 0 0 58.75890166-72.44368441l-15.74958226-150.84014066a116.70506258 116.70506258 0 0 0-178.07791169-86.76548039 256.12291214 256.12291214 0 0 0-184.29427406-198.00102293 42.30640933 42.30640933 0 0 0 9.75287969-60.01096043h51.90552684a42.35034082 42.35034082 0 1 0 0-84.72264775H397.62134461a42.35034082 42.35034082 0 0 0 0 84.72264775h51.83962921a42.30640933 42.30640933 0 0 0 9.77484504 60.01096043 256.18880977 256.18880977 0 0 0-184.75555898 200.52710662 116.70506258 116.70506258 0 0 0-181.83408801 84.26136283L76.85265811 569.07406482a65.96373075 65.96373075 0 0 0 58.75890166 72.44368441l100.9335142 10.54365352a65.67817412 65.67817412 0 0 0 33.69575929-5.35969013V713.54408175A65.96373075 65.96373075 0 0 0 336.20456401 779.5078125h379.76921331z m-189.85165785-164.74458321c-5.33772477 0-10.14826621-3.42668741-12.8500774-9.15979872l-36.17790993-76.66114641-80.85664156-12.30092873c-6.06260099-0.90060373-10.60955115-4.65678006-12.30092871-9.97253869-1.64744608-5.31575864 0-11.1367337 4.37122263-15.59582088l58.51727574-59.68147076-13.81657877-84.28332896c-0.79077383-5.05216736 0.21965978-9.70894741 2.98736863-13.09170255 2.48215141-3.05326625 6.15046475-4.83250758 10.10433394-4.83250758a16.03513968 16.03513968 0 0 1 7.71004706 2.13069638l72.28992302 39.82425713 72.33385451-39.82425713c6.47995366-3.55848266 13.728715-2.32839003 17.81438101 2.7018112a16.18890106 16.18890106 0 0 1 2.94343634 13.09170255l-13.79461262 84.28332896 58.51727573 59.68147076c4.39318877 4.4590864 5.97473723 10.32399373 4.34925728 15.63975238-1.66941144 5.31575864-6.2383285 9.00603733-12.30092872 9.97253944l-80.83467619 12.25699648-36.17790993 76.66114642c-2.7018112 5.7331113-7.51235264 9.15979872-12.82811206 9.15979871zM207.08874282 588.5358919099999l-29.52222953-3.07523237a49.40140928 49.40140928 0 0 1-43.9977869-54.25588299l10.43382362-99.87914906a64.25038781 64.25038781 0 0 1 126.23828325-8.85227595v36.92475305l-8.89620822 85.14000044a49.40140928 49.40140928 0 0 1-54.25588222 43.99778688z m579.46161381-43.99778689l-4.63481391-44.21744591v-89.73088362a64.25038781 64.25038781 0 0 1 122.0208212 20.735852l10.4118575 99.87914906a49.40140928 49.40140928 0 0 1-44.01975225 54.25588299l-29.52222954 3.07523237a49.40140928 49.40140928 0 0 1-54.255883-43.99778689z"  horiz-adv-x="1024" />
      
      <glyph glyph-name="livecore" unicode="&#58946;" d="M789.2483656 776.33211496a58.35025017 58.35025017 0 0 0 36.5880608-76.25892967l-90.82114031-244.35308166a283.94282353 283.94282353 0 1 0-463.35412491 0.87211018L181.16452654 700.07318529A58.35025017 58.35025017 0 0 0 217.73230599 776.33211496 62.3051684 62.3051684 0 0 0 250.91305308 777.97492696C253.83360792 778.42112311 256.83528973 778.66450255 259.89781565 778.66450255H747.08285593c3.04224456 0 6.0439256-0.22309808 8.98476256-0.66929423a62.3051684 62.3051684 0 0 0 33.16046496-1.64281199zM503.03399934 443.40915436c-5.65857508 0-10.74926427-3.63041178-13.60897425-9.69461952l-38.39312602-81.3293375-85.75073247-13.04108838c-6.4292769-0.9532364-11.25630453-4.92843598-13.020807-10.56672892-1.76450171-5.63829294 0-11.82419039 4.60393032-16.54981045l62.06178817-63.27868614-14.62305473-89.42170776c-0.87211018-5.35435 0.20281594-10.28278676 3.16393426-13.87263505 2.61633052-3.24506048 6.49012176-5.11097056 10.70870079-5.11097134a17.03656932 17.03656932 0 0 1 8.17349646 2.25126138l76.66456233 42.20607238 76.74568932-42.20607238c6.85519091-3.77238286 14.54192851-2.49464081 18.88219726 2.85970996 2.90027347 3.58984829 4.03604444 8.51828505 3.12337154 13.87263505l-14.64333687 89.40142562 62.06178818 63.29896828c4.66477518 4.72562004 6.32786854 10.95208022 4.62421169 16.59037394-1.76450171 5.63829294-6.61181148 9.57292981-13.02080625 10.56672893l-85.7710146 13.00052488-38.37284467 81.3293375c-2.83942861 6.08448909-7.95039917 9.69461952-13.60897346 9.69461952z m176.85581571 213.42359515H327.09085653l42.46973396-114.22614165a283.94282353 283.94282353 0 0 0 267.71751952-0.40563266l42.61170504 114.63177431z"  horiz-adv-x="1024" />
      
      <glyph glyph-name="loadcode" unicode="&#58947;" d="M530.22632479 779.5078125a156.11501369 156.11501369 0 0 0 116.39935435-260.1500592l126.59886896-219.26874023a156.11501369 156.11501369 0 1 0-133.65526752-204.53148418H420.88336901A156.11501369 156.11501369 0 1 0 287.20728712 300.08901306999996l126.59886817 219.26874023A156.11501369 156.11501369 0 0 0 530.22632479 779.5078125zM576.54044569 474.25092233a155.96930615 155.96930615 0 0 0-46.3141209-6.97313722 156.09419856 156.09419856 0 0 0-46.29330496 6.97313722l-118.022951-204.40659176a156.1774599 156.1774599 0 0 0 59.09473723-91.02546027h210.44303824a156.1774599 156.1774599 0 0 0 59.11555161 91.02546027l-118.02295022 204.40659175z"  horiz-adv-x="1024" />
      
      <glyph glyph-name="market" unicode="&#58948;" d="M169.503347 761.876898A41.837714 41.837714 0 0 1 127.686531 720.039184v-668.651102c0-23.113143 18.745469-41.837714 41.837714-41.837715h668.651102a41.837714 41.837714 0 0 1 41.837714 41.837715V490.997551L546.063673 149.19053099999996a57.761959 57.761959 0 0 0-4.388571-4.033307c-0.835918-1.149388-1.713633-2.298776-2.654041-3.385469-20.647184-24.36702-55.713959-25.850776-78.325551-3.301877l-152.513306 152.053551c-22.611592 22.548898-24.199837 60.583184-3.552653 84.950204 20.647184 24.36702 55.713959 25.850776 78.325551 3.301877l114.688-114.332734 359.549388 368.013061a54.543673 54.543673 0 0 0 22.820571 14.147918V720.039184a41.837714 41.837714 0 0 1-41.837714 41.837714H169.524245z"  horiz-adv-x="1024" />
      
      <glyph glyph-name="plus" unicode="&#58949;" d="M199.65910201 445.941551a62.756571 62.756571 0 1 1 0.41795899-125.513143l259.63624501 0.856816v-249.814204a62.756571 62.756571 0 0 1 125.49224499 0V321.70318399999996l255.43575501 0.83591801a62.756571 62.756571 0 0 1-0.41795901 125.51314299l-255.017796-0.835918V698.9740409999999a62.756571 62.756571 0 1 1-125.49224499 0v-252.196572l-260.05420402-0.856816z"  horiz-adv-x="1024" />
      
      <glyph glyph-name="phone" unicode="&#58950;" d="M758.909388 204.54922399999998l-149.629388 37.323756a61.293714 61.293714 0 0 1-58.096327-16.154123l-37.67902-37.616326a413.549714 413.549714 0 0 0-203.796898 204.193959l44.679837 44.575347a60.959347 60.959347 0 0 1 14.524081 62.108734l-43.551346 130.633143c-22.63249 72.432327-171.154286 70.488816-223.33649-66.288326v-4.451266c-17.324408-96.653061 31.263347-222.834939 132.869224-342.62204 121.166367-144.572082 317.44-278.569796 453.924572-240.117551 146.578286 60.186122 141.541878 208.08098 70.091755 228.414693zM473.861224 805.386449c-11.096816 0-21.733878-4.388571-29.612408-12.246204a41.733224 41.733224 0 0 1 29.612408-71.324735 377.856 377.856 0 0 0 266.34449-110.299428 376.184163 376.184163 0 0 0 110.550204-265.738449 41.733224 41.733224 0 0 1 41.858613-41.795919 41.921306 41.921306 0 0 1 41.87951 41.795919 459.650612 459.650612 0 0 1-135.084408 324.837877 461.698612 461.698612 0 0 1-325.548409 134.791837z m209.397552-459.608816c0-11.075918 4.388571-21.71298 12.246204-29.549715a41.921306 41.921306 0 0 1 71.47102 29.549715 292.446041 292.446041 0 0 1-85.91151 206.74351 293.741714 293.741714 0 0 1-207.203266 85.744326c-11.096816 0-21.733878-4.409469-29.612408-12.246204a41.733224 41.733224 0 0 1 29.612408-71.324734 209.899102 209.899102 0 0 0 147.957552-61.272817 208.979592 208.979592 0 0 0 61.44-147.644081z"  horiz-adv-x="1024" />
      
      <glyph glyph-name="more" unicode="&#58951;" d="M226.262204 39.392652999999996l316.102531 307.429878a44.449959 44.449959 0 0 1 0 63.529796L226.262204 717.740408a49.611755 49.611755 0 0 1-69.381224 0 51.220898 51.220898 0 0 1 0-73.184653l264.735347-257.462857c4.806531-4.660245 4.806531-12.371592 0-17.010939L156.901878 112.59820400000001a51.220898 51.220898 0 0 1 0-73.184653 49.799837 49.799837 0 0 1 69.381224 0zM564.370286 39.392652999999996l316.10253 307.429878a44.449959 44.449959 0 0 1 0 63.529796L564.370286 717.740408a49.611755 49.611755 0 0 1-69.381225 0 51.220898 51.220898 0 0 1 0-73.184653l264.735347-257.462857c4.806531-4.660245 4.806531-12.371592 0-17.010939l-264.735347-257.462857a51.220898 51.220898 0 0 1 0-73.184653 49.799837 49.799837 0 0 1 69.381225 0z"  horiz-adv-x="1024" />
      
      <glyph glyph-name="nodata" unicode="&#58952;" d="M779.72994962 754.78857422A61.85989403 61.85989403 0 0 0 841.58984367 692.92868018v-617.85736036A61.85989403 61.85989403 0 0 0 779.72994962 13.211425780000013H244.27005038A61.85989403 61.85989403 0 0 0 182.41015633 75.07131981999999V692.92868018A61.85989403 61.85989403 0 0 0 244.27005038 754.78857422h535.45989924zM676.7949222 229.50476098000001a61.79809547 61.79809547 0 1 1 0-123.59619165 61.79809547 61.79809547 0 0 1 0 123.59619165z m-185.39428711 44.80361891H326.60571289a41.19873054 41.19873054 0 1 1 0-82.39746037h164.7949222a41.19873054 41.19873054 0 0 1 0 82.39746037z m186.01226782 374.1668702a51.53961182 51.53961182 0 0 1-51.56021158-51.53961182v-247.41897567a51.53961182 51.53961182 0 1 1 103.07922363 0V596.93563826A51.53961182 51.53961182 0 0 1 677.41290291 648.49584984zM491.40063509 418.50393644H326.60571289a41.19873054 41.19873054 0 1 1 0-82.39746037h164.7949222a41.19873054 41.19873054 0 0 1 0 82.39746037z m0 144.1955573H326.60571289a41.19873054 41.19873054 0 0 1 0-82.39746111h164.7949222a41.19873054 41.19873054 0 1 1 0 82.39746111z"  horiz-adv-x="1024" />
      
      <glyph glyph-name="refresh" unicode="&#58953;" d="M801.415837 667.815184a395.326694 395.326694 0 0 1-280.596898 116.673306A396.914939 396.914939 0 0 1 239.992163 668.2122449999999a396.350694 396.350694 0 0 1-116.046367-280.764082 396.371592 396.371592 0 0 1 116.046367-280.764081 396.914939 396.914939 0 0 1 280.826776-116.297143 396.538776 396.538776 0 0 1 362.015347 234.851265c13.750857 30.866286-11.013224 62.923755-44.805225 62.923755-21.942857 0-41.106286-14.064327-50.88653-33.708408a297.545143 297.545143 0 0 0-266.323592-164.696816c-164.529633 0.083592-297.900408 133.287184-298.067592 297.691428 0.083592 164.466939 133.496163 297.77502 298.067592 297.858613 82.442449 0 155.898776-34.209959 209.60653-88.335674l-88.502857-88.398367c-26.352327-26.373224-7.690449-71.450122 29.59151-71.450123h204.716409a41.837714 41.837714 0 0 1 41.837714 41.837715v204.59102c0 37.281959-45.035102 55.943837-71.387429 29.612408l-45.348571-45.327673h0.083592z"  horiz-adv-x="1024" />
      
      <glyph glyph-name="quick_list" unicode="&#58954;" d="M751.92752846 779.5078125a83.34806731 83.34806731 0 0 0 83.34806808-83.34806731V91.94870473000003a83.34806731 83.34806731 0 0 0-83.34806807-83.34806731H251.88075642A83.34806731 83.34806731 0 0 0 168.53268911 91.94870473000003V696.15974519A83.34806731 83.34806731 0 0 0 251.88075642 779.5078125h500.04677205z m-185.05602365-247.04666908a30.24593931 30.24593931 0 0 1-15.4456206-0.31224338 24.54230029 24.54230029 0 0 1-12.15666106-7.63954547L347.5103826 292.72095975a17.36071115 17.36071115 0 0 1-4.10079185-10.03340827 16.73622517 16.73622517 0 0 1 2.87263581-10.30401904c2.08162019-3.1640625 5.20405009-5.82853606 9.03423117-7.66036217 3.83018108-1.83182533 8.20158293-2.81018729 12.63543408-2.81018729h150.79255692v-145.92156613c0-4.24650481 1.70692829-8.3889285 4.85017487-11.80278584 3.1224299-3.41385658 7.55628104-5.93261719 12.6146174-7.16077324 5.05833713-1.24897195 10.47054868-1.12407491 15.42480469 0.31224261 4.97507192 1.45713421 9.24239342 4.12160777 12.15666183 7.66036216l191.77965645 231.78839404a17.36071115 17.36071115 0 0 1 4.10079109 10.03340905 16.73622517 16.73622517 0 0 1-2.89345173 10.30401903 22.4814968 22.4814968 0 0 1-9.03423117 7.63954626 29.18431369 29.18431369 0 0 1-12.63543331 2.83100321h-150.79255769v145.92156612a17.42315966 17.42315966 0 0 1-4.82935895 11.80278585 25.22923556 25.22923556 0 0 1-12.63543331 7.13995731z m-141.13384054 49.58418951h-113.03196917a32.39000802 32.39000802 0 1 1 0-64.78001603h113.03196917a32.39000802 32.39000802 0 1 1 0 64.78001603z m265.34411035 122.23273076H312.7056951a32.39000802 32.39000802 0 0 1 0-64.78001682h378.37607953a32.39000802 32.39000802 0 1 1-1e-8 64.78001682z"  horiz-adv-x="1024" />
      
      <glyph glyph-name="promotions" unicode="&#58955;" d="M512 779.5078125c27.20214827 0 53.50341779-9.68994141 74.20166024-27.33398446l48.47167935-41.30859332c6.0864257-5.22949236 13.68896493-8.37158178 21.68701197-9.00878966l63.50097622-5.05371077a114.38964862 114.38964862 0 0 0 104.91943419-104.91943342l5.05371077-63.500977c0.65917943-7.99804704 3.80126962-15.60058628 9.00878889-21.70898428l41.33056641-48.47167935a114.38964862 114.38964862 0 0 0 0-148.40332048l-41.30859332-48.44970703c-5.22949236-6.10839878-8.37158178-13.71093725-9.00878966-21.70898429l-5.07568309-63.52294931a114.38964862 114.38964862 0 0 0-104.8974611-104.8974611l-63.500977-5.05371077c-7.99804704-0.65917943-15.60058628-3.80126962-21.70898428-9.00878889l-48.47167935-41.33056641a114.38964862 114.38964862 0 0 0-148.40332048 0l-48.44970703 41.30859332a38.40820321 38.40820321 0 0 1-21.70898429 9.00878966l-63.50097622 5.07568309a114.38964862 114.38964862 0 0 0-104.94140651 104.8974611l-5.05371077 63.500977a38.12255851 38.12255851 0 0 1-9.00878966 21.7309566l-41.30859332 48.44970703a114.38964862 114.38964862 0 0 0 0 148.40332048l41.30859332 48.47167935c5.22949236 6.0864257 8.37158178 13.68896493 9.00878966 21.68701197l5.05371077 63.50097622a114.38964862 114.38964862 0 0 0 104.91943342 104.9633796l63.500977 5.03173768c7.99804704 0.61523403 15.60058628 3.77929653 21.7309566 9.00878966l48.44970703 41.30859332A114.38964862 114.38964862 0 0 0 512 779.5078125z m0.48339861-132.07763707c-145.76660122 0-263.91357405-118.16894514-263.91357404-263.91357405 0-145.76660122 118.14697283-263.91357405 263.89160096-263.91357404 145.7885743 0 263.93554713 118.14697283 263.93554713 263.89160173 0 145.76660122-118.14697283 263.93554713-263.91357405 263.93554636z m0-65.98388619a197.92968785 197.92968785 0 1 0 0-395.88134801 197.92968785 197.92968785 0 0 0 0 395.88134801zM512 526.82226571c-5.31738316 0-10.15136693-3.42773412-12.8320316-9.14062509l-36.18896484-76.68457022-80.88134766-12.3266599c-6.06445338-0.90087874-10.63476554-4.63623064-12.3046868-9.9755861-1.64794897-5.31738316 0-11.11816415 4.37255824-15.60058629l58.53515625-59.69970661-13.82080112-84.30908253c-0.81298793-5.05371077 0.21972622-9.68994141 2.98828168-13.07373014 2.46093768-3.07617171 6.1523434-4.83398454 10.10742153-4.83398454a16.04003872 16.04003872 0 0 1 7.71240235 2.13134757L512 283.1235355l72.35595738-39.81445365c6.48193351-3.55957031 13.73291033-2.35107457 17.81982387 2.70263698a16.21582031 16.21582031 0 0 1 2.94433628 13.07373014l-13.82080112 84.30908253 58.55712856 59.69970661c4.39453133 4.48242213 5.9545895 10.32714852 4.35058593 15.66650399-1.66992205 5.31738316-6.24023421 9.00878889-12.3046868 9.95361302l-80.85937535 12.26074219-36.21093715 76.68457101c-2.68066389 5.73486328-7.49267613 9.1625974-12.8320316 9.16259739z"  horiz-adv-x="1024" />
      
      <glyph glyph-name="reply" unicode="&#58956;" d="M860.91204834 733.45524089A65.49871099 65.49871099 0 0 0 926.41075933 667.95652989v-492.14549328a65.49871099 65.49871099 0 0 0-65.49871099-65.49871099h-206.15844727l-82.96939595-85.06326148c-19.80447242-20.34974961-56.11994135-20.34974961-75.9462244 0l-82.96939668 85.06326148H206.71013678A65.49871099 65.49871099 0 0 0 141.21142578 175.81103660999997V667.95652989A65.49871099 65.49871099 0 0 0 206.71013678 733.45524089h654.20191156zM325.6242138 456.56342061a54.44048708 54.44048708 0 1 1 0-108.85916355 54.44048708 54.44048708 0 0 1 0 108.85916355z m208.644912 0a54.44048708 54.44048708 0 1 1-1e-8-108.85916355 54.44048708 54.44048708 0 0 1 0 108.85916355z m208.64491127 0a54.44048708 54.44048708 0 1 1 0-108.85916355 54.44048708 54.44048708 0 0 1 0 108.85916355z"  horiz-adv-x="1024" />
      
      <glyph glyph-name="shop" unicode="&#58957;" d="M918.778776 630.2406530000001H325.652898l-22.110041 89.840327H143.506286a44.930612 44.930612 0 0 1 0-89.861225h83.424653l105.764571-482.09502A78.367347 78.367347 0 0 1 292.571429 79.89289799999995c0-43.384163 35.73551-78.597224 79.830204-78.597225 44.157388 0 79.892898 35.213061 79.892898 78.597225a78.012082 78.012082 0 0 1-23.96996 56.173714H727.24898a77.782204 77.782204 0 0 1-23.990858-56.173714c0-43.384163 35.73551-78.597224 79.830205-78.597225 44.178286 0 79.913796 35.213061 79.913795 78.597225a78.555429 78.555429 0 0 1-45.035102 70.802286 41.06449 41.06449 0 0 1-38.870204 54.334694H409.70449l-9.341388 65.807673h394.866939c29.884082 0 55.630367 21.086041 61.523592 50.38498l62.066938 309.018122h-0.041795z"  horiz-adv-x="1024" />
      
      <glyph glyph-name="result" unicode="&#58958;" d="M208.707918 723.5918369999999a62.756571 62.756571 0 0 1-62.756571-62.756572v-582.635102a62.756571 62.756571 0 0 1 62.756571-62.756571h73.372735a62.756571 62.756571 0 0 1 62.67298 66.037551l-7.544164 143.903347c37.07298 0.752327 74.54302 6.269388 107.248327 17.51249l378.88 130.486857c86.454857 29.758694 86.454857 84.323265 0 114.102857l-378.88 130.465959c-39.058286 13.437388-84.866612 18.682776-128.731429 17.387102l-1.504653 28.77649a62.756571 62.756571 0 0 1-62.693877 59.475592h-42.840817z"  horiz-adv-x="1024" />
      
      <glyph glyph-name="search" unicode="&#58959;" d="M827.998041 207.05697999999995l-125.743021 83.090285a328.369633 328.369633 0 0 1 47.250286 225.217306c-11.890939 78.450939-51.680653 149.671184-111.72049 199.99347a310.543673 310.543673 0 0 1-213.660734 72.641306 311.797551 311.797551 0 0 1-206.513633-91.742041c-55.463184-55.546776-88.899918-130.089796-93.957225-209.313959a327.47102 327.47102 0 0 1 66.580898-220.05551c47.91902-62.443102 116.673306-104.615184 193.097143-118.407837 76.444735-13.792653 155.167347 1.755429 221.100408 43.655837l81.230368-128.647837a106.140735 106.140735 0 0 1 30.928979-31.63951c22.987755-15.130122 50.886531-20.27102 77.573225-14.336a103.026939 103.026939 0 0 1 64.783673 45.97551 107.41551 107.41551 0 0 1 14.001633 79.370449 105.409306 105.409306 0 0 1-44.930612 66.246531v-2.048z m-391.836735 36.529632c-42.276571 0-83.591837 12.831347-118.763102 36.864a217.694041 217.694041 0 0 0-78.722612 98.136817 223.399184 223.399184 0 0 0-12.162612 126.349061 220.306286 220.306286 0 0 0 58.514285 111.971265 212.323265 212.323265 0 0 0 109.442613 59.851755 209.293061 209.293061 0 0 0 123.506938-12.434286 214.893714 214.893714 0 0 0 95.942531-80.540734 223.064816 223.064816 0 0 0 19.748571-205.197061 219.115102 219.115102 0 0 0-46.330775-70.948572 213.493551 213.493551 0 0 0-69.360327-47.396571 209.606531 209.606531 0 0 0-81.794612-16.655674z"  horiz-adv-x="1024" />
      
      <glyph glyph-name="setting" unicode="&#58960;" d="M825.364898 85.117388c-12.329796 4.472163-21.023347 7.147102-29.257143 10.260898-25.119347 9.362286-49.319184 20.062041-74.919184 28.546612a36.257959 36.257959 0 0 1-24.659591-2.236082 392.463673 392.463673 0 0 1-51.638858-29.424326c-5.496163-3.573551-10.051918-11.598367-11.431183-18.306612a1448.646531 1448.646531 0 0 1-13.249306-89.19249c-2.298776-16.948245-10.511673-24.534204-28.316735-24.095347a9303.729633 9303.729633 0 0 1-157.633306 0c-17.366204 0-26.498612 6.687347-28.797388 23.635592-4.096 29.884082-9.132408 59.350204-12.789551 89.234285-1.358367 10.24-5.01551 16.48849-15.067429 21.399511-16.927347 8.024816-31.973878 19.184327-48.901224 27.209142-5.93502 3.134694-15.067429 4.451265-21.462204 2.215184-29.696-10.24-58.493388-21.838367-87.729633-33.018775-21.023347-8.003918-26.958367-6.227592-38.828408 13.395591-26.059755 43.258776-51.617959 86.538449-77.217959 129.797225-11.890939 20.062041-11.431184 24.993959 7.314286 39.267265 24.659592 19.184327 49.799837 37.470041 73.999673 57.093225 4.576653 3.552653 7.774041 11.598367 7.774041 17.387102 0.91951 16.509388-2.737633 33.89649 0 49.946122 3.197388 17.408-4.116898 26.331429-16.906449 35.693714-22.841469 16.070531-43.864816 33.917388-66.246531 49.946123-13.249306 9.822041-16.446694 20.082939-7.77404 34.356245 27.877878 45.954612 55.296 92.348082 82.714122 138.720653 7.753143 12.956735 17.805061 15.631673 31.973878 10.260898 30.155755-11.598367 60.31151-23.614694 90.906122-34.335347 6.415673-2.236082 16.467592-0.898612 22.862367 2.236082 17.345306 8.463673 32.893388 19.623184 50.259592 28.086857 9.132408 4.472163 12.329796 9.822041 13.249306 18.745469 4.116898 30.322939 9.132408 60.666776 13.249306 90.989714 1.379265 17.387102 10.971429 23.635592 27.877878 23.635592 52.537469-0.438857 105.074939-0.438857 157.633306 0 16.446694 0 25.579102-6.687347 27.397225-22.736979 4.116898-29.884082 9.153306-59.350204 12.810449-89.234286 1.358367-11.138612 5.475265-17.825959 16.446693-22.73698 15.986939-7.126204 31.054367-16.049633 45.682939-25.871673 9.592163-6.687347 17.825959-6.687347 28.316735-2.236082 28.337633 11.619265 57.114122 21.859265 85.890612 33.457633 16.007837 6.269388 26.958367 3.134694 35.651918-12.037225 26.038857-45.056 53.45698-89.652245 79.955592-134.269387 10.511673-17.825959 9.153306-23.614694-7.753143-36.571429-24.241633-18.285714-48.441469-37.010286-73.121959-55.296-8.212898-6.269388-10.490776-12.058122-9.592163-22.31902 1.83902-18.724571-0.459755-37.908898 0.459755-56.63347 0.459755-6.687347 3.657143-14.733061 8.672653-18.745469 24.241633-19.623184 49.36098-37.908898 74.020572-56.63347 16.927347-12.956735 17.825959-18.745469 7.314285-36.571428a13410.930939 13410.930939 0 0 0-81.334857-135.627755c-4.555755-8.024816-12.329796-12.476082-17.805061-17.387102z m-313.427592 146.285714c82.693224-0.417959 151.217633 65.138939 151.677388 144.990041 0.459755 82.066286-66.246531 148.542694-149.420408 148.981551-83.132082 0.438857-151.677388-65.577796-151.677388-146.74547-0.459755-80.289959 67.166041-146.766367 149.420408-147.205224z"  horiz-adv-x="1024" />
      
      <glyph glyph-name="share" unicode="&#58961;" d="M714.919184 211.11118399999998c-31.744 0-60.186122-12.601469-81.92-32.329143l-298.004898 174.142694c2.089796 9.675755 3.761633 19.330612 3.761632 29.403428s-1.671837 19.727673-3.761632 29.340735l294.661224 172.491755c22.569796-21.002449 52.244898-34.00098 85.263674-34.00098 69.443918 0 125.387755 56.278204 125.387755 125.952 0 69.652898-56.006531 125.84751-125.387755 125.847511s-125.366857-56.194612-125.366857-125.847511c0-10.13551 1.650939-19.790367 3.761632-29.403428l-294.661224-172.470857c-22.569796 20.981551-52.244898 33.980082-85.263674 33.980081-69.443918 0-125.387755-56.21551-125.387755-125.889306 0-69.652898 56.006531-125.889306 125.387755-125.889306 33.018776 0 62.693878 12.998531 85.263674 33.980082l297.586938-174.602449c-2.131592-8.777143-3.343673-18.034939-3.343673-27.230041 0-67.563102 54.731755-122.545633 122.023184-122.545633s122.044082 54.982531 122.044081 122.545633c0 67.542204-54.752653 122.524735-122.044081 122.524735z"  horiz-adv-x="1024" />
      
      <glyph glyph-name="a-tip1" unicode="&#58962;" d="M517.642449 807.183673a417.959184 417.959184 0 1 1 0-835.918367 417.959184 417.959184 0 0 1 0 835.918367z m62.714775-216.816326a62.693878 62.693878 0 1 0-125.387755 0 62.693878 62.693878 0 0 0 125.387755 0z m-114.520816-157.152653a52.286694 52.286694 0 1 0 104.573388 0v-251.026286a52.286694 52.286694 0 0 0-104.594286 0V433.214694z"  horiz-adv-x="1024" />
      
      <glyph glyph-name="spin" unicode="&#58963;" d="M831.070041 686.2471840000001l-18.891755-18.870857c-130.465959 146.808163-351.900735 180.725551-523.201306 70.844081A412.107755 412.107755 0 0 1 100.101224 417.332245c-1.421061-22.569796 17.846857-40.228571 40.458449-39.288163 22.42351 0.961306 39.622531 19.915755 41.586939 42.297469a329.93698 329.93698 0 0 0 53.080817 152.764082 329.080163 329.080163 0 0 0 156.045061 126.056489 325.590204 325.590204 0 0 0 199.533714 11.556572c63.488-16.509388 120.372245-51.889633 163.296653-101.396898l-23.781877-23.781878c-24.450612-24.429714-13.437388-62.025143 18.181224-62.234122l101.459592-0.710531c23.134041-0.146286 44.199184 20.897959 44.032 44.052898l-0.689633 101.417796c-0.20898 31.63951-37.825306 42.631837-62.275918 18.181225zM269.771755 192.57469400000002l-11.953633-11.598367a324.085551 324.085551 0 0 1 166.09698-104.698776 325.590204 325.590204 0 0 1 199.57551 11.577469 329.059265 329.059265 0 0 1 156.024164 126.05649 329.93698 329.93698 0 0 1 53.080816 152.764082c1.94351 22.381714 19.142531 41.336163 41.586939 42.276571 22.611592 0.961306 41.87951-16.718367 40.458449-39.288163A412.065959 412.065959 0 0 0 725.786122 48.79673500000001c-172.95151-110.905469-396.956735-75.274449-526.921142 75.107265l-21.295021-20.626286c-24.805878-24.032653-62.234122-12.455184-61.941551 19.184327l0.877714 101.417796c0.20898 23.134041 21.60849 43.864816 44.721633 43.342367l101.417796-2.298775c31.63951-0.710531 42.046694-38.452245 17.240816-62.505796l-2.298775-2.215184a20.835265 20.835265 0 0 0-6.687347-6.875429l-1.12849-0.71053z"  horiz-adv-x="1024" />
      
      <glyph glyph-name="stopwatch" unicode="&#58964;" d="M606.09130859 779.5078125c10.36230469 0 18.82617188-8.34521484 18.82617188-18.54931641v-61.7980957a18.74707031 18.74707031 0 0 0-18.82617188-18.52954101h-43.90136718v-53.29467774a326.64990234 326.64990234 0 0 0 156.38378906-68.91723633l43.13012695 42.49731446a19.04370117 19.04370117 0 0 0 26.67700196 0l44.37597656-43.72338868a18.3515625 18.3515625 0 0 0 0-26.26171875l-47.06542969-46.35351562a314.68579102 314.68579102 0 0 0 52.56298828-174.73535156c0-177.52368164-146.04125977-321.35009766-326.27416992-321.35009766C331.74731445-11.5078125 185.70605469 132.31860352 185.70605469 309.84228515999996 185.70605469 470.51733398 305.38671875 603.7045898399999 461.77050781 627.33618164V680.63085938h-43.90136718a18.74707031 18.74707031 0 0 0-18.82617188 18.5493164V760.95849609c0 10.18432617 8.46386719 18.52954102 18.82617188 18.52954102h188.22216796zM512 524.8996582a49.43847656 49.43847656 0 0 1-49.43847656-49.43847656v-158.203125a49.43847656 49.43847656 0 0 1 98.87695312 0v158.203125a49.43847656 49.43847656 0 0 1-49.43847656 49.43847656z"  horiz-adv-x="1024" />
      
      <glyph glyph-name="trash" unicode="&#58965;" d="M743.663497 560.084241c11.30319692 0 20.27497957-8.97178265 20.27497956-20.27497879V81.95692828999995a86.36641685 86.36641685 0 0 0-86.55376241-86.55376242H330.75334075a86.36641685 86.36641685 0 0 0-86.55376242 86.55376242V540.18395333a19.98355287 19.98355287 0 0 0 19.90028767 19.90028767h479.563631z m-167.15409096-172.75364886l-74.77179325-74.73016064-74.73015987 74.73016064a23.50149058 23.50149058 0 0 1-33.22265625 0l-16.61132813-16.61132812c-9.17994413-9.15912821-9.17994413-24.04271212 0-33.20184034l74.73015987-74.75097655-74.73015987-74.75097656c-9.17994413-9.15912821-9.17994413-24.04271212 0-33.22265625l16.61132813-16.61132813c9.15912821-9.15912821 24.04271212-9.15912821 33.20183955 0l74.75097657 74.73016064 74.75097656-74.73016064c9.15912821-9.15912821 24.04271212-9.15912821 33.22265625 0l16.61132812 16.61132813c9.15912821 9.15912821 9.15912821 24.04271212 0 33.22265625l-74.73015987 74.73016064 74.73015987 74.77179247c9.15912821 9.15912821 9.15912821 24.04271212 0 33.20184034l-16.61132812 16.61132812a23.50149058 23.50149058 0 0 1-33.22265625 0zM610.50226122 779.5078125a51.16622154 51.16622154 0 0 0 47.02379787-71.3995685h124.70985798c12.07339663 0 21.83619413-9.76279827 21.44068631-21.85701081v-49.50092509c0-12.09421254-9.74198158-21.85701082-21.83619413-21.85701004H221.61400119C209.51978787 614.91411397 199.75699037 624.67691225 199.75699037 636.7711247899999V686.25123319c0 12.09421254 9.74198158 21.85701082 21.83619413 21.8570108h129.12289244A51.16622154 51.16622154 0 0 0 397.7190581 779.5078125h212.80401982z"  horiz-adv-x="1024" />
      
      <glyph glyph-name="spintowin" unicode="&#58966;" d="M523.43481758 805.87417685c55.60512891 0 109.56391782-10.90700135 160.35350262-32.39173635a411.17337927 411.17337927 0 0 0 130.94575571-88.28497542 410.49426434 410.49426434 0 0 0 120.656133-291.29925832c0-55.60512891-10.90700135-109.56391782-32.39173718-160.35350181a410.45310598 410.45310598 0 0 0-88.28497458-130.96633612 410.76179407 410.76179407 0 0 0-291.27867957-120.63555257 410.67947735 410.67947735 0 0 0-291.3198371 120.63555258A410.84411159 410.84411159 0 0 0 111.45884748 393.89820676 410.86469037 410.86469037 0 0 0 232.11498048 685.19746508a411.13222092 411.13222092 0 0 0 130.94575571 88.28497542A409.58877722 409.58877722 0 0 0 523.45539718 805.87417685z m0-68.65237216A341.05988095 341.05988095 0 0 1 280.68200584 636.67159808a341.12161808 341.12161808 0 0 1-100.5502066-242.75281173c0-91.70112964 35.72557471-177.92817983 100.5502066-242.77339133A341.03930137 341.03930137 0 0 1 523.43481758 50.615767180000034c91.70112964 0 177.92817983 35.70499595 242.75281256 100.5502066a341.08045972 341.08045972 0 0 1 100.57078537 242.77339133c0 91.68055088-35.72557471 177.90760107-100.57078536 242.75281174a340.99814301 340.99814301 0 0 1-242.75281257 100.55020743zM464.96917348 252.70398503a152.03948593 152.03948593 0 0 1 51.59217562-11.44206242l6.89404808-0.14405466v-190.52267954a342.4386904 342.4386904 0 0 0-131.46023804 25.97101063l72.97401435 176.15836478z m-82.72857761 82.72857762a153.00671018 153.00671018 0 0 1 33.15316883-49.55483001l-134.71175886-134.73233762a342.70622012 342.70622012 0 0 0-74.59977474 111.33373288l176.15836477 72.95343475z m199.70102499-82.7285776l72.95343476-176.13778601a342.64448301 342.64448301 0 0 1 111.29257453 74.59977474l-134.71175885 134.71175886a152.9861314 152.9861314 0 0 0-49.53425043-33.15316882z m184.24600928 383.96761302a342.4386904 342.4386904 0 0 0 74.59977476-111.33373286l-176.15836478-72.95343476a153.00671018 153.00671018 0 0 1-33.17374841 49.55482919l134.73233844 134.73233844zM523.45539718 737.22180469c45.85056482 0 90.30174142-8.93139367 131.43965844-25.97101145l-72.95343476-176.15836477a152.28643689 152.28643689 0 0 1-58.48622368 11.60669668V737.22180469zM206.0822311 525.37902356l176.15836477-72.97401435a152.34817483 152.34817483 0 0 1-11.5861171-58.4450645H180.13179924c0 45.80940647 8.91081409 90.30174142 25.95043186 131.41907885z m185.89234927 185.89234927l72.97401434-176.15836478a153.02728976 153.02728976 0 0 1-49.55483001-33.15316881L280.66142626 636.67159808a342.78853765 342.78853765 0 0 0 111.33373288 74.57919516zM523.45539718 546.69912515a152.78033881 152.78033881 0 1 0-0.04115836-305.5812572 152.78033881 152.78033881 0 0 0 0.02057876 305.60183596z m40.12953359-186.01582516c-13.82925449 0-25.04494473-11.11279395-25.04494473-24.79799378 0-13.70577942 11.21569025-24.79799378 25.06552432-24.79799459 13.82925449 0 25.04494473 11.11279395 25.04494473 24.79799459 0 13.70577942-11.21569025 24.79799378-25.04494473 24.79799378z m22.26674707 109.72855206H458.42497268v-154.28262414h9.46645394c16.17528901 0 28.93442295 13.06782285 28.93442294 29.18137389v30.86887226h88.36729212v37.51596936h-88.36729212v18.99464666h89.02582828V470.43243082zM664.62904012 335.47372100999996a152.32759524 152.32759524 0 0 1 11.58611627 58.4656441v0.0205796h190.56383872c0-45.85056482-8.97255203-90.34289978-25.99159021-131.43965846l-176.15836478 72.95343477zM672.90189764 587.75472464a17.16309283 17.16309283 0 1 0-24.28351311 24.24235474 17.16309283 17.16309283 0 0 0 24.28351311-24.24235474z"  horiz-adv-x="1024" />
      
      <glyph glyph-name="voice" unicode="&#58967;" d="M844.277551 486.546286c-6.582857 0-12.956735-0.752327-19.163429-2.068898C808.75102 639.164082 675.233959 760.163265 513.462857 760.163265s-295.309061-120.999184-311.797551-275.685877a92.201796 92.201796 0 0 1-19.121633 2.068898c-48.107102 0-87.04-38.243265-87.04-85.472653v-68.357225c0-47.229388 38.932898-85.472653 87.04-85.472653 48.065306 0 87.04 38.243265 87.04 85.472653v119.682612c0 131.949714 109.296327 239.40702 243.774694 239.407021 134.457469 0 243.795592-107.457306 243.795592-239.407021v-102.671673c0-92.389878-53.519673-175.250286-137.717551-215.374367a69.73649 69.73649 0 0 1-36.466939 10.198204H443.663673c-38.473143 0-69.632-30.573714-69.632-68.336327 0-37.804408 31.137959-68.378122 69.632-68.378122h139.305796c37.825306 0 68.482612 29.549714 69.611102 66.309224 76.486531 37.198367 132.931918 102.19102 158.740898 179.450776 10.198204-4.116898 21.336816-6.35298 33.060572-6.35298 48.065306 0 87.04 38.243265 87.04 85.472653v68.336327c0 47.229388-39.058286 85.472653-87.14449 85.472653z"  horiz-adv-x="1024" />
      
      </font>
</defs>
</svg>
